2 сезон

iTunes

MVO

1

2 сезон

iTunes

iTunes

1 сезон

RePack

30

Ultimate

ВАЖНО

ИГРА 18+

pack

RePack

MK11
pack

Легкие деньги

RePack

jed

RePack

fifa19

RePack

RDR2

RePack

NEED FOR SPEED™ PAYBACK

4 сезон

9 сезон

Бесстыжие 9 сезон

Все сериалы

все сериалы на PB.wtf

RePack

FAR CRY 5

Anonymous, добрый вечер, мы не успеваем собрать деньги на оплату серверов за декабрь и январь, помогите нам пожалуйста в это трудное время. В качестве благодарности мы отключим Вам всю рекламу на сайте (укажите свой ник в строку Ваше имя)!

×
  
Magnet ссылка

Бугай / Boogie, el aceitoso (Густаво Кова / Gustavo Cova) [2010, Мексика, Аргентина, мультфильм, боевик, криминал, DVD9] R5 pb.wtf

Бугай через торрент pb.wtf

Размер: 7.79 GB | Добавлен: 9 лет 9 мес. назад | Торрент скачан:64 раза
Скачать  

09-04-2011 23:08 Бугай Скачать торрент  


Бугай / Boogie, el aceitoso (2D + 3D)
«Есть еще кто живой? Тогда Бугай идет к вам!»
Страна: Мексика, Аргентина
Студия: Illusion Studios, Proceso
Жанр: мультфильм, боевик, криминал
Год выпуска: 2010
Мировая премьера: 22 октября 2009
Российская премьера: 9 декабря 2010, «Каравелла DDC» 3D
Дата выхода DVD: 24 марта 2011, «Новый Диск»
Продолжительность: 01:21:18+01:21:45
Перевод: Профессиональный (дублированный) [Лицензия]
Cубтитры: нет
Режиссер: Густаво Кова / Gustavo Cova
В ролях: Пабло Эчарри, Нэнси Дуплаа, Николас Фриас, Марсело Арман, Руфино Галло, Диего Брицци, Рикардо Эланис, Лучана Фалькон, Карин Сабала, Эрнан Чьёзза...
Описание: Киллер по прозвищу Бугай начал свою карьеру во Вьетнаме, убивал черных повстанцев в Южной Африке, мочил красных в Никаргуа, глотал песок в Афганистане и Ираке. Он был на всех гребаных войнах за последние 30 лет! Раньше он убивал во имя демократии, теперь убивает за бабос!
Этот заказ должен был стать последним — убрать бывшую телку Сонни Калабриа, дона всех донов, главы мафии в Америке, которую ФБР развело дать показания против него. Дело трудное и он попросил много — 500 кусков. Чтобы хватило надолго.
Но Сонни зажал бабки и нанял молодого киллера Блэкберна по кличке Человек-Каблук, который обещал отработать за половину и убрать Бугая до кучи, чтобы не возникло конфликта интересов. И тут Бугай конкретно напрягся! Теперь его цель — выкрасть свидетельницу, любой ценой привезти ее на суд и убить всех вокруг! На его пути вырастают горы трупов, кровь льется рекой и выбитые зубы свистят над головой.

Бонусы: нет

Качество: DVD9 R5
Формат: DVD-Video
Видео кодек: MPEG2
Аудио кодек: AC3
Видео: PAL 16:9 (720x576(0.576)) MPEG Video,25,000 кадр/сек, 5974 Кбит/сек
Аудио: Russian (Dolby AC3, 6 ch) 448 Кбит/сек, 48,0 КГц



Title: F
Size: 7.79 Gb ( 8 169 468 KBytes ) - DVD-9
Enabled regions: 1, 2, 3, 4, 5, 6, 7, 8

VTS_01 :
Play Length: 00:00:10
Video: PAL 4:3 (720x576) VBR
Audio:
Russian (Dolby AC3, 2 ch)

VTS_02 :
Play Length: 01:21:18
Video: PAL 16:9 (720x576) VBR, Auto Letterboxed
Audio:
Russian (Dolby AC3, 6 ch)

VTS_03 :
Play Length: 01:21:45
Video: PAL 16:9 (720x576) VBR, Auto Letterboxed
Audio:
Russian (Dolby AC3, 6 ch)

Menu Video:
PAL 4:3 (720x576) VBR
Menu Subtitles:
Not specified
Menu English Language Unit :
Root Menu
Общее
Полное имя : E:\Новинки 2011\Bugaj.2009.DVD-9\VIDEO_TS\VTS_02_1.VOB
Формат : MPEG-PS
Размер файла : 1024 Мбайт
Продолжительность : 21 м.
Общий поток : 6552 Кбит/сек

Видео
Идентификатор : 224 (0xE0)
Формат : MPEG Video
Версия формата : Version 2
Профиль формата : Main@Main
Параметр BVOP формата : Да
Параметр матрицы формата : По умолчанию
Параметры GOP формата : M=3, N=15
Продолжительность : 21 м.
Вид битрейта : Переменный
Битрейт : 5974 Кбит/сек
Номинальный битрейт : 9500 Кбит/сек
Ширина : 720 пикс.
Высота : 576 пикс.
Соотношение сторон : 16:9
Частота кадров : 25,000 кадр/сек
Стандарт вещания : PAL
Цветовое пространство : YUV
Подвыборка цветности : 4:2:0
Битовая глубина : 8 бит
Тип развёртки : Прогрессивная
Метод сжатия : С потерями
Бит/(Пиксели*Кадры) : 0.576
Размер потока : 934 Мбайт (91%)

Аудио
Идентификатор : 189 (0xBD)-128 (0x80)
Формат : AC-3
Формат/Информация : Audio Coding 3
Расширение режима : CM (complete main)
Режим смешивания : DVD-Video
Продолжительность : 21 м.
Вид битрейта : Постоянный
Битрейт : 448 Кбит/сек
Канал(ы) : 6 канала(ов)
Расположение каналов : Front: L C R, Side: L R, LFE
Частота : 48,0 КГц
Битовая глубина : 16 бит
Метод сжатия : С потерями
Размер потока : 70,0 Мбайт (7%)










pb.wtf



Скачать Бугай через торрент http://i19.fastpic.ru/big/2011/0409/f8/c31570af30505ca3d74879a0268291f8.jpg Скачать фильм Бугай через торрент бесплантно в хорошем качестве Описание: Киллер по прозвищу Бугай начал свою карьеру во Вьетнаме, убивал черных повстанцев в Южной Африке, мочил красных в Никаргуа, ... 5 10 9
Info! Золотая раздача, скачанное не засчитывается.
Торрент: Зарегистрирован [2011-04-09 23:08] · скачан: 64 раз
Статус: √ проверено
Размер: 7.79 GB
Как cкачать? Как скачать Бугай через торрент | UTorrent

28-11-2019 20:33  

Отключить всю рекламу на сайте

    Дорогой пользователь! Огромная просьба, поблагодарите релизера, оцените раздачу и оставьте свои комментарий, если Вы скачали Бугай через торрент бесплатно! Внесите свою лепту в развитие PiratBit!
    Комментировать посты могут только пользователи прошедшие не сложную регистрацию
    Показать сообщения:    

    Бугай через торрент
    Скачать бесплатно Бугай
    Бугай скачать торрент
    Бугай смотреть онлайн
    Cкачать фильм Бугай бесплатно
    Бугай скачать торрент в хорошем качестве
    Бугай смотреть онлайн бесплатно в хорошем качестве


    Вы не можете начинать темы
    Вы не можете отвечать на сообщения
    Вы не можете редактировать свои сообщения
    Вы не можете удалять свои сообщения
    Вы не можете голосовать в опросах
    Вы не можете прикреплять файлы к сообщениям
    Вы можете скачивать файлы