Ссылка на приватное зеркало нашего сайта всего за 1$. Внимание количество ограничено!!!

2 сезон

iTunes

1 сезон

1

2 сезон

2 сезон

iTunes

1 сезон

RePack

30

Новинка

ВАЖНО

ИГРА 18+

pack

RePack

MK11
pack

Забери бонус

RePack

jed

!!Акция!!

Alien_Rage

RePack

fifa19

RePack

Assassins Creed: Odyssey

RePack

NEED FOR SPEED™ PAYBACK

4 сезон

9 сезон

Бесстыжие 9 сезон

Все сериалы

все сериалы на PB.wtf

RePack

FAR CRY 5
  

(Blues-Rock) Matt Powell - The Money & The Grass - 1998, APE (image + .cue), lossless pb.wtf

через торрент pb.wtf

Размер: 301 MB | Добавлен: 9 лет 7 мес. назад | Торрент скачан:0 раз
Скачать  

12-04-2011 05:53 Скачать торрент  



Matt Powell - The Money & The Grass


Страна: США
Жанр: Blues-Rock
Год выпуска: 1998
Формат: APE (image + .cue)
Битрейт аудио: lossless
Продолжительность: 00:41:27

Трэклист:
01. The Money & The Grass 03:23
02. Rich Man 02:57
03. Turtles & Rabbits 03:47
04. Daisy Chain 04:54
05. You Never Know 05:24
06. Striped Sunshine 05:57
07. What You Do To Me 05:21
08. Jet Black Dreams 03:55
09. Lover Man 04:58
10. Ride 03:12
11. Crow 03:30
12. Turn The Page 05:24

Exact Audio Copy V0.99 prebeta 4 from 23. January 2008

Отчёт EAC об извлечении, выполненном 21. октября 2010, 15:58

Matt Powell / The Money & The Grass

Дисковод: PLEXTOR DVDR PX-820A Adapter: 3 ID: 1

Режим чтения : Достоверность
Использование точного потока : Да
Отключение кэша аудио : Да
Использование указателей C2 : Нет

Коррекция смещения при чтении : 48
Способность читать области Lead-in и Lead-out : Нет
Заполнение пропущенных сэмплов тишиной : Да
Удаление блоков с тишиной в начале и конце : Нет
При вычислениях CRC использовались нулевые сэмплы : Да
Интерфейс : Встроенный Win32-интерфейс для Win NT/2000

Выходной формат : Внутренние WAV-операции
Формат сэмплов : 44.100 Гц; 16 бит; стерео

TOC извлечённого CD

Трек | Старт | Длительность | Начальный сектор | Конечный сектор
---------------------------------------------------------------------
1 | 0:00.00 | 3:23.02 | 0 | 15226
2 | 3:23.02 | 2:57.02 | 15227 | 28503
3 | 6:20.04 | 3:47.02 | 28504 | 45530
4 | 10:07.06 | 4:54.02 | 45531 | 67582
5 | 15:01.08 | 5:24.02 | 67583 | 91884
6 | 20:25.10 | 5:57.02 | 91885 | 118661
7 | 26:22.12 | 5:21.02 | 118662 | 142738
8 | 31:43.14 | 3:55.02 | 142739 | 160365
9 | 35:38.16 | 4:58.02 | 160366 | 182717
10 | 40:36.18 | 3:12.02 | 182718 | 197119
11 | 43:48.20 | 3:30.02 | 197120 | 212871
12 | 47:18.22 | 5:24.02 | 212872 | 237173

Характеристики диапазона извлечения и сообщения об ошибках

Выбранный диапазон

Имя файла D:\КОЛЛЕКЦИЯ 8\MATT POWELL\Matt Powell - The Money & The Grass.wav

Пиковый уровень 98.8 %
Качество диапазона 100.0 %
CRC копии C817EC99
Копирование... OK

Ошибок не произошло


AccurateRip: сводка

Трек 1 точное извлечение (доверие 1) [F5420889]
Трек 2 точность не определена (достоверность 1) [5ABA2D7A], AccurateRip вернул [46B32D7A]
Трек 3 точное извлечение (доверие 1) [9A8C5FDC]
Трек 4 точное извлечение (доверие 1) [29C6C3A0]
Трек 5 точное извлечение (доверие 1) [7364B6A0]
Трек 6 точное извлечение (доверие 1) [BCA3D991]
Трек 7 точное извлечение (доверие 1) [A9C1A882]
Трек 8 точное извлечение (доверие 1) [5D9668B7]
Трек 9 точное извлечение (доверие 1) [65DF22A8]
Трек 10 точное извлечение (доверие 1) [04140F5B]
Трек 11 точное извлечение (доверие 1) [3F16C7F8]
Трек 12 точное извлечение (доверие 1) [7D2992EC]

11 трек(и) скопированы точно
1 трек(и) не удалось проверить на точность

Некоторые треки не прошли проверку на точность

Конец отчёта

pb.wtf



Скачать через торрент http://i054.radikal.ru/1104/f1/8b17215b4ccd.jpg Скачать фильм через торрент бесплантно в хорошем качестве Трэклист: The Money & The Grass 03:23 Rich Man 02:57 Turtles & Rabbits 03:47 Daisy Chain 04:54 You Never Know 05:24 ... 5 10 2
Info! Золотая раздача, скачанное не засчитывается.
Торрент: Зарегистрирован [2011-04-12 05:53] · скачан: 0 раз
Статус: √ проверено
Размер: 301 MB
Как cкачать? Как скачать через торрент | qTorrent

% Раздел Тема Автор DL S | L
Classic Rock & Hard Rock (lossless) [ 2.68 GB ] EVANESCENCE Дискография - 1998-2007 FLAC lossless ser_1985 Скачать
1 | 0
Eurodance, Technopop, Disco (lossless) [ 1.86 GB ] Dr. Alban Студийные альбомы - 5CD [FLAC lossless] tauras Скачать
1 | 0
Action FPS (1st Person) [ 8.89 GB ] Star Wars: The Force Unleashed - Ultimate Sith Edition [Lossless Repack RU/EN] от Druid =Чувак= Скачать
1 | 0
Архив (Alternative, Punk, Independent) [ 1.74 GB ] Breaking Benjamin - Дискография - 2001-2009 FLAC lossless King_IS_Back Скачать
1 | 0
Гоночные симуляторы [ 3.18 GB ] Дальнобойщик​и 3: Золотое Издание [Lossless Repack RU] от R.G. Catalyst roman3310i Скачать
1 | 1
Архив (Многоканальная музыка и собственные оцифровки) [ 405 MB ] Black Sabbath -Heaven & hell - 1980 DTS lossless staryirocker Скачать
1 | 0
RTS (стратегии в реальном времени) [ 4.21 GB ] Command & Conquer 4: Tiberian Twilight [Lossless RePackRUEA] Alex_Zeyn Скачать
2 | 0

28-11-2019 20:33  

Отключить всю рекламу на сайте

    Дорогой пользователь! Огромная просьба, поблагодарите релизера, оцените раздачу и оставьте свои комментарий, если Вы скачали через торрент бесплатно! Внесите свою лепту в развитие PiratBit!
    Комментировать посты могут только пользователи прошедшие не сложную регистрацию
    Показать сообщения:    

    через торрент
    Скачать бесплатно
    скачать торрент
    смотреть онлайн
    Cкачать фильм бесплатно
    скачать торрент в хорошем качестве
    смотреть онлайн бесплатно в хорошем качестве


    Вы не можете начинать темы
    Вы не можете отвечать на сообщения
    Вы не можете редактировать свои сообщения
    Вы не можете удалять свои сообщения
    Вы не можете голосовать в опросах
    Вы не можете прикреплять файлы к сообщениям
    Вы можете скачивать файлы