1 сезон

3 сезон

iTunes

1

Line

MVO

iTunes

13

1 сезон

RePack

30

Deluxe

pack

Лицензия

ВАЖНО

ИГРА 18+

pack

RePack

MK11

RePack

jed

RePack

fifa19

RePack

RDR2

RePack

NEED FOR SPEED™ PAYBACK

4 сезон

9 сезон

Бесстыжие 9 сезон

Все сериалы

все сериалы на PB.wtf

RePack

FAR CRY 5

Anonymous, добрый вечер, мы катастрофически не успеваем собрать деньги на оплату серверов, помогите нам пожалуйста 5,10,15р., для нас важна любая помощь . В качестве благодарности мы отключим Вам всю рекламу на сайте (укажите свой ник в строку Ваше имя)!

×
  
Magnet ссылка

Волшебное серебро / Julenatt i Blafjell (Катарина Лаунинг, Роар Утхауг / Katarina Launing, Roar Uthaug) [2009, Норвегия, фэнтези, приключения, семейный, DVD5] R5 «Мистерия Звука» pb.wtf

Волшебное серебро через торрент pb.wtf

Размер: 4.02 GB | Добавлен: 10 лет назад | Торрент скачан:44 раза
Скачать  

12-04-2011 19:59 Волшебное серебро Скачать торрент  


Волшебное серебро / Julenatt i Blafjell
Страна: Норвегия
Студия: Film Fund FUZZ, Storm Rosenberg
Жанр: фэнтези, приключения, семейный
Год выпуска: 2009
Мировая премьера: 13 ноября 2009
Дата выхода DVD: 17 марта 2011, «Мистерия Звука»
Продолжительность: 01:22:57
Перевод: Профессиональный (дублированный) [Лицензия]
Cубтитры: нет
Режиссер: Катарина Лаунинг, Роар Утхауг / Katarina Launing, Roar Uthaug
В ролях: Симен Баккен, Сигве Боэ, Николин Урсин Эрихсен, Лиллиан Лидерсен, Карре Хеллум, Финн Шо
Описание: Блюроуз — это принцесса царства гномов, расположенного далеко в норвежских горах. Небольшое сообщество гномов отвечает за переход между дневным светом и ночной тьмой. Этот промежуток называется волшебным часом и создается с помощью волшебного серебра, которым владеют только эти гномы. Но вот серебро украдено другими гномами и людьми, и мир погружается в вечную ночь. Принцесса Блюроуз отправляется в путь, чтобы вернуть серебро и спасти мир от вечной тьмы…
Бонусы: нет

Релиз группы:
Качество: DVD5 R5
Формат: DVD-Video
Видео кодек: MPEG2
Аудио кодек: AC3
Видео: PAL 16:9 (720x576(0.622)) MPEG Video,25,000 кадр/сек, 6448 Кбит/сек
Аудио: Russian (Dolby AC3, 2 ch) 192 Кбит/сек, 48,0 КГц



Title: F
Size: 4.02 Gb ( 4 220 186 KBytes ) - DVD-5
Enabled regions: 1, 2, 3, 4, 5, 6, 7, 8

VTS_01 :
Play Length: 00:00:25+01:22:57
Video: PAL 16:9 (720x576) VBR, Auto Letterboxed
Audio:
Russian (Dolby AC3, 2 ch)

Menu Video:
PAL 4:3 (720x576) VBR
Auto Pan&Scan, Auto Letterboxed
Menu Russian Language Unit :
Root Menu
Chapter (PTT) Menu
Общее
Полное имя : F:\Новинки 2011\Julenatt i Blafjell.2009.DVD5\VIDEO_TS\VTS_01_1.VOB
Формат : MPEG-PS
Размер файла : 1024 Мбайт
Продолжительность : 21 м.
Общий поток : 6775 Кбит/сек

Видео
Идентификатор : 224 (0xE0)
Формат : MPEG Video
Версия формата : Version 2
Профиль формата : Main@Main
Параметр BVOP формата : Да
Параметр матрицы формата : По умолчанию
Продолжительность : 21 м.
Вид битрейта : Переменный
Битрейт : 6448 Кбит/сек
Ширина : 720 пикс.
Высота : 576 пикс.
Соотношение сторон : 16:9
Частота кадров : 25,000 кадр/сек
Стандарт вещания : PAL
Цветовое пространство : YUV
Подвыборка цветности : 4:2:0
Битовая глубина : 8 бит
Метод сжатия : С потерями
Бит/(Пиксели*Кадры) : 0.622
Размер потока : 975 Мбайт (95%)

Аудио
Идентификатор : 189 (0xBD)-128 (0x80)
Формат : AC-3
Формат/Информация : Audio Coding 3
Расширение режима : CM (complete main)
Режим смешивания : DVD-Video
Продолжительность : 21 м.
Вид битрейта : Постоянный
Битрейт : 192 Кбит/сек
Канал(ы) : 2 канала(ов)
Расположение каналов : Front: L R
Частота : 48,0 КГц
Битовая глубина : 16 бит
Метод сжатия : С потерями
Задержка видео : -50 мс.
Размер потока : 29,0 Мбайт (3%)










pb.wtf



Скачать Волшебное серебро через торрент http://i3.imageban.ru/out/2011/04/12/e621e23b5a0c5ac8796a94997e6a4669.jpg Скачать фильм Волшебное серебро через торрент бесплантно в хорошем качестве Описание: Блюроуз — это принцесса царства гномов, расположенного далеко в норвежских горах. Небольшое сообщество гномов отвечает за переход ... 10 10 1
Info! Золотая раздача, скачанное не засчитывается.
Торрент: Зарегистрирован [2011-04-12 19:59] · скачан: 44 раз
Статус: √ проверено
Размер: 4.02 GB
Как cкачать? Как скачать Волшебное серебро через торрент | UTorrent

28-11-2019 20:33  

Отключить всю рекламу на сайте

    Дорогой пользователь! Огромная просьба, поблагодарите релизера, оцените раздачу и оставьте свои комментарий, если Вы скачали Волшебное серебро через торрент бесплатно! Внесите свою лепту в развитие PiratBit!
    Комментировать посты могут только пользователи прошедшие не сложную регистрацию
    Показать сообщения:    

    Волшебное серебро через торрент
    Скачать бесплатно Волшебное серебро
    Волшебное серебро скачать торрент
    Волшебное серебро смотреть онлайн
    Cкачать фильм Волшебное серебро бесплатно
    Волшебное серебро скачать торрент в хорошем качестве
    Волшебное серебро смотреть онлайн бесплатно в хорошем качестве


    Вы не можете начинать темы
    Вы не можете отвечать на сообщения
    Вы не можете редактировать свои сообщения
    Вы не можете удалять свои сообщения
    Вы не можете голосовать в опросах
    Вы не можете прикреплять файлы к сообщениям
    Вы можете скачивать файлы