1 сезон

3 сезон

iTunes

1

Line

MVO

iTunes

13

1 сезон

RePack

30

Deluxe

pack

Лицензия

ВАЖНО

ИГРА 18+

pack

RePack

MK11

RePack

jed

RePack

fifa19

RePack

RDR2

RePack

NEED FOR SPEED™ PAYBACK

4 сезон

9 сезон

Бесстыжие 9 сезон

Все сериалы

все сериалы на PB.wtf

RePack

FAR CRY 5

Anonymous, доброй ночи, мы катастрофически не успеваем собрать деньги на оплату серверов, помогите нам пожалуйста 5,10,15р., для нас важна любая помощь . В качестве благодарности мы отключим Вам всю рекламу на сайте (укажите свой ник в строку Ваше имя)!

×
  
Magnet ссылка

Притворись моей женой / Just Go with It (Дэннис Дуган / Dennis Dugan) [2011, США, мелодрама, комедия, DVD9] R5 «Columbia/Sonpb.wtf

Притворись моей женой через торрент pb.wtf

Размер: 5.77 GB | Добавлен: 10 лет назад | Торрент скачан:174 раза
Скачать  

13-04-2011 13:15 Притворись моей женой Скачать торрент  


Притворись моей женой / Just Go with It
«Иногда, чтобы влюбиться, нужно... жениться»
Страна: США
Студия: Columbia Pictures, Happy Madison Productions
Жанр: мелодрама, комедия
Год выпуска: 2011
Мировая премьера: 8 февраля 2011
Российская премьера: 24 марта 2011, «WDSSPR»
Дата выхода DVD: 21 апреля 2011, «Columbia/Sony»
Продолжительность: 01:51:51
Перевод: Профессиональный (дублированный) [Лицензия]
Cубтитры: нет
Режиссер: Дэннис Дуган / Dennis Dugan
В ролях: Адам Сэндлер, Дженнифер Энистон, Николь Кидман, Ник Свардсон, Бруклин Декер, Бэйли Мэдисон, Дэйв Мэтьюз, Кевин Нилон, Рэйчел Дрэч, Аллен Коверт и др.
Описание: Главный герой Дэнни встретил Палмер, и чтобы произвести впечатление, рассказал о своей несуществующей жене и тяготах семейной жизни. Вместо ожидаемого сочувствия, Палмер хочет познакомиться с его женой, и Дэнни необходимо срочно придумать, как выпутаться из столь интересного положения. К счастью, у него есть знакомая коллега Кэтрин, обаятельная и с детьми, которые и сыграют на время роль его семьи.
Бонусы: нет

Релиз группы:
Качество: DVD9 R5
Формат: DVD-Video
Видео кодек: MPEG2
Аудио кодек: AC3
Видео: PAL 16:9 (720x576(0.591)) MPEG Video,25,000 кадр/сек, 6128 Кбит/сек
Аудио: Russian / Ukrainian (Dolby AC3, 6 ch) 448 Кбит/сек, 48,0 КГц



Title: Мой диск
Size: 5.77 Gb ( 6 050 312 KBytes ) - DVD-9
Enabled regions: 1, 2, 3, 4, 5, 6, 7, 8

VTS_01 :
Play Length: 01:51:51
Video: PAL 16:9 (720x576) VBR, Auto Letterboxed
Audio:
Russian (Dolby AC3, 6 ch)
Ukrainian (Dolby AC3, 6 ch)
Subtitles:
Russian
Общее
Полное имя : F:\Новинки 2011\Pritvoris.moey.zhenoy.2011.DVD9\VIDEO_TS\VTS_01_1.VOB
Формат : MPEG-PS
Размер файла : 1024 Мбайт
Продолжительность : 19 м.
Общий поток : 7167 Кбит/сек

Видео
Идентификатор : 224 (0xE0)
Формат : MPEG Video
Версия формата : Version 2
Профиль формата : Main@Main
Параметр BVOP формата : Да
Параметр матрицы формата : По умолчанию
Продолжительность : 19 м.
Вид битрейта : Переменный
Битрейт : 6128 Кбит/сек
Номинальный битрейт : 9000 Кбит/сек
Ширина : 720 пикс.
Высота : 576 пикс.
Соотношение сторон : 16:9
Частота кадров : 25,000 кадр/сек
Стандарт вещания : PAL
Цветовое пространство : YUV
Подвыборка цветности : 4:2:0
Битовая глубина : 8 бит
Тип развёртки : Прогрессивная
Порядок развёртки : Верхнее поле первое
Метод сжатия : С потерями
Бит/(Пиксели*Кадры) : 0.591
Размер потока : 876 Мбайт (86%)

Аудио #1
Идентификатор : 189 (0xBD)-128 (0x80)
Формат : AC-3
Формат/Информация : Audio Coding 3
Расширение режима : CM (complete main)
Режим смешивания : DVD-Video
Продолжительность : 19 м.
Вид битрейта : Постоянный
Битрейт : 448 Кбит/сек
Канал(ы) : 6 канала(ов)
Расположение каналов : Front: L C R, Side: L R, LFE
Частота : 48,0 КГц
Битовая глубина : 16 бит
Метод сжатия : С потерями
Размер потока : 64,0 Мбайт (6%)

Аудио #2
Идентификатор : 189 (0xBD)-129 (0x81)
Формат : AC-3
Формат/Информация : Audio Coding 3
Расширение режима : CM (complete main)
Режим смешивания : DVD-Video
Продолжительность : 19 м.
Вид битрейта : Постоянный
Битрейт : 448 Кбит/сек
Канал(ы) : 6 канала(ов)
Расположение каналов : Front: L C R, Side: L R, LFE
Частота : 48,0 КГц
Битовая глубина : 16 бит
Метод сжатия : С потерями
Размер потока : 64,0 Мбайт (6%)










pb.wtf



Скачать Притворись моей женой через торрент http://i19.fastpic.ru/big/2011/0413/c4/b795ed4fdaf5dfb01d7d72b6ed2bafc4.jpg Скачать фильм Притворись моей женой через торрент бесплантно в хорошем качестве Описание: Главный герой Дэнни встретил Палмер, и чтобы произвести впечатление, рассказал о своей несуществующей жене и тяготах семейной ... 10 10 1
Info! Золотая раздача, скачанное не засчитывается.
Торрент: Зарегистрирован [2011-04-13 13:15] · скачан: 174 раз
Статус: √ проверено
Размер: 5.77 GB
Как cкачать? Как скачать Притворись моей женой через торрент | UTorrent

28-11-2019 20:33  

Отключить всю рекламу на сайте

13-04-2011 15:05 Притворись моей женой Скачать торрент  

Спасибо)pb.wtf



    Дорогой пользователь! Огромная просьба, поблагодарите релизера, оцените раздачу и оставьте свои комментарий, если Вы скачали Притворись моей женой через торрент бесплатно! Внесите свою лепту в развитие PiratBit!
    Комментировать посты могут только пользователи прошедшие не сложную регистрацию
    Показать сообщения:    

    Притворись моей женой через торрент
    Скачать бесплатно Притворись моей женой
    Притворись моей женой скачать торрент
    Притворись моей женой смотреть онлайн
    Cкачать фильм Притворись моей женой бесплатно
    Притворись моей женой скачать торрент в хорошем качестве
    Притворись моей женой смотреть онлайн бесплатно в хорошем качестве


    Вы не можете начинать темы
    Вы не можете отвечать на сообщения
    Вы не можете редактировать свои сообщения
    Вы не можете удалять свои сообщения
    Вы не можете голосовать в опросах
    Вы не можете прикреплять файлы к сообщениям
    Вы можете скачивать файлы