1 сезон

3 сезон

iTunes

1

iTunes

MVO

iTunes

13

1 сезон

RePack

30

Deluxe

pack

Лицензия

ВАЖНО

ИГРА 18+

pack

RePack

MK11

RePack

jed

RePack

fifa19

RePack

RDR2

RePack

NEED FOR SPEED™ PAYBACK

4 сезон

9 сезон

Бесстыжие 9 сезон

Все сериалы

все сериалы на PB.wtf

RePack

FAR CRY 5

Anonymous, добрый день, мы катастрофически не успеваем собрать деньги на оплату серверов, помогите нам пожалуйста 5,10,15р., для нас важна любая помощь . В качестве благодарности мы отключим Вам всю рекламу на сайте (укажите свой ник в строку Ваше имя)!

×
  
Magnet ссылка

Лето в Коста-Рике / Costa Rican Summer (Джейсон Мэттьюс / Jason Matthews) [2010, США, комедия, DVD5] pb.wtf

Лето в Коста-Рике через торрент pb.wtf

Размер: 4.33 GB | Добавлен: 10 лет назад | Торрент скачан:25 раз
Скачать  

15-04-2011 21:07 Лето в Коста-Рике Скачать торрент  


Лето в Коста-Рике / Costa Rican Summer
«Heroes don't die, they just stop showering.»
Страна: США
Студия: Project 8 Films, Velocity Pictures
Жанр: комедия
Год выпуска: 2010
Мировая премьера: 24 мая 2010
Дата выхода DVD: 24 марта 2011
Продолжительность: 01:28:35
Перевод: Профессиональный (многоголосый закадровый) [Лицензия]
Cубтитры: украинские
Оригинальная аудиодорожка: английский
Режиссер: Джейсон Мэттьюс / Jason Matthews
В ролях: Джулианна Гуилл, Сьюзэн Уорд, Дэвид Чокачи, Питер Данте, Памела Андерсон, Брок Келли, Макс Ван Вилле, Дрю Рой
Описание: Молодой серфингист и его друзья отправились в Коста-Рику, чтобы спасти мотель на берегу его красивой тети, они вынуждены обратится к экс-серфингисту который не занимается этим многие годы…
Бонусы: нет

Релиз группы:
Качество: DVD5 R5
Формат: DVD-Video
Видео кодек: MPEG2
Аудио кодек: AC3
Видео: PAL 16:9 (720x576(0.646)) MPEG Video,25,000 кадр/сек, 6693 Кбит/сек
Аудио: Russian / English (Dolby AC3, 6 ch) 384 Кбит/сек, 48,0 КГц



Title:
Size: 4.33 Gb ( 4 542 644 KBytes ) - DVD-5
Enabled regions: 1, 2, 3, 4, 5, 6, 7, 8

VTS_01 :
Play Length: 00:00:08
Video: PAL 4:3 (720x576) VBR

VTS_02 :
Play Length: 00:00:07
Video: PAL 4:3 (720x576) VBR
Audio:
English (Dolby AC3, 2 ch)

VTS_03 :
Play Length: 01:28:35
Video: PAL 16:9 (720x576) VBR, Auto Letterboxed
Audio:
Russian (Dolby AC3, 6 ch)
English (Dolby AC3, 6 ch)
Subtitles:
Ukrainian

VTS_04 :
Play Length: 00:02:18
Video: PAL 16:9 (720x576) VBR, Auto Letterboxed
Audio:
English (Dolby AC3, 6 ch)

Menu Video:
PAL 4:3 (720x576) VBR
Auto Pan&Scan, Auto Letterboxed
Menu Russian Language Unit :
Root Menu
Chapter (PTT) Menu
Audio Menu
Общее
Полное имя : F:\Новинки 2011\Leto.v.kostarike.2010.DVD5\VIDEO_TS\VTS_03_1.VOB
Формат : MPEG-PS
Размер файла : 1024 Мбайт
Продолжительность : 18 м.
Общий поток : 7612 Кбит/сек

Видео
Идентификатор : 224 (0xE0)
Формат : MPEG Video
Версия формата : Version 2
Профиль формата : Main@Main
Параметр BVOP формата : Да
Параметр матрицы формата : По умолчанию
Продолжительность : 18 м.
Вид битрейта : Переменный
Битрейт : 6693 Кбит/сек
Номинальный битрейт : 8000 Кбит/сек
Ширина : 720 пикс.
Высота : 576 пикс.
Соотношение сторон : 16:9
Частота кадров : 25,000 кадр/сек
Стандарт вещания : PAL
Цветовое пространство : YUV
Подвыборка цветности : 4:2:0
Битовая глубина : 8 бит
Тип развёртки : Чересстрочная
Порядок развёртки : Верхнее поле первое
Метод сжатия : С потерями
Бит/(Пиксели*Кадры) : 0.646
Размер потока : 900 Мбайт (88%)

Аудио #1
Идентификатор : 189 (0xBD)-128 (0x80)
Формат : AC-3
Формат/Информация : Audio Coding 3
Расширение режима : CM (complete main)
Режим смешивания : DVD-Video
Продолжительность : 18 м.
Вид битрейта : Постоянный
Битрейт : 384 Кбит/сек
Канал(ы) : 6 канала(ов)
Расположение каналов : Front: L C R, Side: L R, LFE
Частота : 48,0 КГц
Битовая глубина : 16 бит
Метод сжатия : С потерями
Размер потока : 51,6 Мбайт (5%)

Аудио #2
Идентификатор : 189 (0xBD)-129 (0x81)
Формат : AC-3
Формат/Информация : Audio Coding 3
Расширение режима : CM (complete main)
Режим смешивания : DVD-Video
Продолжительность : 18 м.
Вид битрейта : Постоянный
Битрейт : 384 Кбит/сек
Канал(ы) : 6 канала(ов)
Расположение каналов : Front: L C R, Side: L R, LFE
Частота : 48,0 КГц
Битовая глубина : 16 бит
Метод сжатия : С потерями
Размер потока : 51,6 Мбайт (5%)

Текст
Идентификатор : 189 (0xBD)-32 (0x20)
Формат : RLE
Формат/Информация : Run-length encoding
Режим смешивания : DVD-Video










pb.wtf



Скачать Лето в Коста-Рике через торрент http://i19.fastpic.ru/big/2011/0415/74/bc60d3ef631ac3aa3af3f841ba9bd874.jpg Скачать фильм Лето в Коста-Рике через торрент бесплантно в хорошем качестве Описание: Молодой серфингист и его друзья отправились в Коста-Рику, чтобы спасти мотель на берегу его красивой тети, они вынуждены ... 4.8 10 4
Info! Золотая раздача, скачанное не засчитывается.
Торрент: Зарегистрирован [2011-04-15 21:07] · скачан: 25 раз
Статус: √ проверено
Размер: 4.33 GB
Как cкачать? Как скачать Лето в Коста-Рике через торрент | UTorrent

% Раздел Тема Автор DL S | L
Фильмы 2010 [ 1.37 GB ] Лето в Коста-Рике / Costa Rican Summer [2010 DVDRip лицензия] SD Скачать
1 | 0

28-11-2019 20:33  

Отключить всю рекламу на сайте

16-04-2011 06:46 Лето в Коста-Рике Скачать торрент  

Ребят, у этой тёти и правда красивый берег?))))) Сладите за тем что пишете :) Поправьте описание )pb.wtf



    Дорогой пользователь! Огромная просьба, поблагодарите релизера, оцените раздачу и оставьте свои комментарий, если Вы скачали Лето в Коста-Рике через торрент бесплатно! Внесите свою лепту в развитие PiratBit!
    Комментировать посты могут только пользователи прошедшие не сложную регистрацию
    Показать сообщения:    

    Лето в Коста-Рике через торрент
    Скачать бесплатно Лето в Коста-Рике
    Лето в Коста-Рике скачать торрент
    Лето в Коста-Рике смотреть онлайн
    Cкачать фильм Лето в Коста-Рике бесплатно
    Лето в Коста-Рике скачать торрент в хорошем качестве
    Лето в Коста-Рике смотреть онлайн бесплатно в хорошем качестве


    Вы не можете начинать темы
    Вы не можете отвечать на сообщения
    Вы не можете редактировать свои сообщения
    Вы не можете удалять свои сообщения
    Вы не можете голосовать в опросах
    Вы не можете прикреплять файлы к сообщениям
    Вы можете скачивать файлы