1 сезон

3 сезон

iTunes

1

Line

MVO

iTunes

13

1 сезон

RePack

30

Deluxe

pack

Лицензия

ВАЖНО

ИГРА 18+

pack

RePack

MK11

RePack

jed

RePack

fifa19

RePack

RDR2

RePack

NEED FOR SPEED™ PAYBACK

4 сезон

9 сезон

Бесстыжие 9 сезон

Все сериалы

все сериалы на PB.wtf

RePack

FAR CRY 5

Anonymous, доброй ночи, мы катастрофически не успеваем собрать деньги на оплату серверов, помогите нам пожалуйста 5,10,15р., для нас важна любая помощь . В качестве благодарности мы отключим Вам всю рекламу на сайте (укажите свой ник в строку Ваше имя)!

×
  
Magnet ссылка

Боец / The Fighter (Дэвид О. Расселл / David O. Russell) [2010, США, драма, биография, спорт, DVD9] R5 «CP-Digital» pb.wtf

Боец через торрент pb.wtf

Размер: 6.52 GB | Добавлен: 10 лет назад | Торрент скачан:17 раз
Скачать  

15-04-2011 21:09 Боец Скачать торрент  


Боец / The Fighter
Страна: США
Студия: Closest to the Hole Productions, Relativity Media
Жанр: драма, биография, спорт
Год выпуска: 2010
Мировая премьера: 10 декабря 2010
Российская премьера: 23 февраля 2011, «Парадиз»
Дата выхода DVD: 21 апреля 2011, «CP-Digital»
Продолжительность: 01:50:55
Перевод: Профессиональный (дублированный) [Лицензия]
Cубтитры: нет
Режиссер: Дэвид О. Расселл / David O. Russell
В ролях: Марк Уолберг, Кристиан Бэйл, Эми Адамс, Мелисса Лео, Микки О’Киф, Джек МакГи, Мелисса МакМикин, Бьянка Хантер, Эрика МакДермотт, Джилл Квигг
Описание: Невероятная, но реальная история пути к званию чемпиона мира боксера Микки Уорда по кличке «Ирландец». Восхождение Уорда было похоже на восхождение легендарного Рокки. Парень из народа, между боями он трудился на дорожных работах. Пережив череду неудач и поражений, Микки сумел снова вернуться на ринг, когда его тренером стал сводный брат Дикки Эклунд, бывший боксер, карьера которого оборвалась из-за пристрастия к кокаину. Помощь брата, любовь официантки Шарлин, забота матери и несгибаемая воля к победе позволили Уорду взойти на мировой пьедестал…
Бонусы: Каталог, Создатели и исполнители, Смотрите на DVD, Фотогалерея

Качество: DVD9 R5
Формат: DVD-Video
Видео кодек: MPEG2
Аудио кодек: AC3 + DTS
Видео: PAL 16:9 (720x576(0.579)) MPEG Video,25,000 кадр/сек, 6000 Кбит/сек
Аудио #1: Russian (Dolby AC3, 6 ch) 448 Кбит/сек, 48,0 КГц
Аудио #2: Russian (DTS, 5 ch) 755 Кбит/сек, 48,0 КГц



Title: Мой диск
Size: 6.52 Gb ( 6 839 938 KBytes ) - DVD-9
Enabled regions: 1, 2, 3, 4, 5, 6, 7, 8

VTS_01 :
Play Length: 00:00:05
Video: PAL 4:3 (720x576) VBR

VTS_02 :
Play Length: 00:00:15
Video: PAL 16:9 (720x576) VBR, Auto Letterboxed
Audio:
Not specified (Dolby AC3, 6 ch)
Not specified (Dolby AC3, 6 ch)
Not specified (Dolby AC3, 6 ch)
Subtitles:
Not specified

VTS_03 :
Play Length: 00:01:53
Video: PAL 16:9 (720x576) VBR, Auto Letterboxed
Audio:
Not specified (Dolby AC3, 2 ch)
Not specified (Dolby AC3, 2 ch)
Subtitles:
Not specified

VTS_04 :
Play Length: 00:00:16
Video: PAL 4:3 (720x576) VBR
Audio:
Not specified (Dolby AC3, 2 ch)
Not specified (Dolby AC3, 2 ch)
Not specified (Dolby AC3, 2 ch)
Subtitles:
Not specified

VTS_05 :
Play Length: 01:50:55
Video: PAL 16:9 (720x576) VBR, Auto Letterboxed
Audio:
Russian (Dolby AC3, 6 ch)
Russian (DTS, 5 ch)

VTS_06 :
Play Length: 00:01:57
Video: PAL 16:9 (720x576) VBR, Auto Letterboxed
Audio:
Not specified (Dolby AC3, 2 ch)
Subtitles:
Not specified

VTS_07 :
Play Length: 00:01:51
Video: PAL 16:9 (720x576) VBR, Auto Letterboxed
Audio:
Not specified (Dolby AC3, 2 ch)
Subtitles:
Not specified

VTS_08 :
Play Length: 00:02:27
Video: PAL 4:3 (720x576) VBR
Audio:
Not specified (Dolby AC3, 2 ch)
Subtitles:
Not specified

VTS_09 :
Play Length: 00:02:14
Video: PAL 16:9 (720x576) VBR, Auto Letterboxed
Audio:
Not specified (Dolby AC3, 2 ch)
Subtitles:
Not specified

VTS_10 :
Play Length: 00:01:53
Video: PAL 16:9 (720x576) VBR, Auto Letterboxed
Audio:
Not specified (Dolby AC3, 2 ch)
Subtitles:
Not specified

VTS_11 :
Play Length: 00:01:51
Video: PAL 16:9 (720x576) VBR, Auto Letterboxed
Audio:
Not specified (Dolby AC3, 2 ch)
Subtitles:
Not specified

VTS_12 :
Play Length: 00:01:12
Video: PAL 16:9 (720x576) VBR, Auto Letterboxed
Audio:
Not specified (Dolby AC3, 2 ch)
Общее
Полное имя : F:\Новинки 2011\Boec.2010.DVD-9\VIDEO_TS\VTS_05_1.VOB
Формат : MPEG-PS
Размер файла : 1024 Мбайт
Продолжительность : 19 м.
Общий поток : 7342 Кбит/сек

Видео
Идентификатор : 224 (0xE0)
Формат : MPEG Video
Версия формата : Version 2
Профиль формата : Main@Main
Параметр BVOP формата : Да
Параметр матрицы формата : По умолчанию
Параметры GOP формата : M=3, N=12
Продолжительность : 19 м.
Вид битрейта : Постоянный
Битрейт : 6000 Кбит/сек
Ширина : 720 пикс.
Высота : 576 пикс.
Соотношение сторон : 16:9
Частота кадров : 25,000 кадр/сек
Стандарт вещания : PAL
Цветовое пространство : YUV
Подвыборка цветности : 4:2:0
Битовая глубина : 8 бит
Тип развёртки : Прогрессивная
Метод сжатия : С потерями
Бит/(Пиксели*Кадры) : 0.579
Размер потока : 836 Мбайт (82%)

Аудио #1
Идентификатор : 189 (0xBD)-128 (0x80)
Формат : AC-3
Формат/Информация : Audio Coding 3
Расширение режима : CM (complete main)
Режим смешивания : DVD-Video
Продолжительность : 19 м.
Вид битрейта : Постоянный
Битрейт : 448 Кбит/сек
Канал(ы) : 6 канала(ов)
Расположение каналов : Front: L C R, Side: L R, LFE
Частота : 48,0 КГц
Битовая глубина : 16 бит
Метод сжатия : С потерями
Размер потока : 62,5 Мбайт (6%)

Аудио #2
Идентификатор : 189 (0xBD)-137 (0x89)
Формат : DTS
Формат/Информация : Digital Theater Systems
Режим смешивания : DVD-Video
Продолжительность : 19 м.
Вид битрейта : Постоянный
Битрейт : 755 Кбит/сек
Канал(ы) : 6 канала(ов)
Расположение каналов : Front: L C R, Side: L R, LFE
Частота : 48,0 КГц
Битовая глубина : 24 бит
Метод сжатия : С потерями
Размер потока : 105 Мбайт (10%)










pb.wtf



Скачать Боец через торрент http://i19.fastpic.ru/big/2011/0415/e4/21b8ca66c66e7265d570d3e734e49ce4.jpg Скачать фильм Боец через торрент бесплантно в хорошем качестве Описание: Невероятная, но реальная история пути к званию чемпиона мира боксера Микки Уорда по кличке «Ирландец». Восхождение Уорда было ... 5 10 8
Info! Золотая раздача, скачанное не засчитывается.
Торрент: Зарегистрирован [2011-04-19 13:07] · скачан: 17 раз
Статус: √ проверено
Размер: 6.52 GB
Как cкачать? Как скачать Боец через торрент | UTorrent



Последний раз редактировалось: voovaz (2011-04-19 13:07), всего редактировалось 1 раз

28-11-2019 20:33  

Отключить всю рекламу на сайте

16-04-2011 06:58 Боец Скачать торрент  

Отличный фильм с отличными актерами! Моя оценка 5+. Спасибо за качество
pb.wtf



19-04-2011 13:08 Боец Скачать торрент  

Торент перезалит.В связи с тем,что релиз электрички был кривой.Отсутствовала DTS дорога.Теперь релиз полный!pb.wtf



    Дорогой пользователь! Огромная просьба, поблагодарите релизера, оцените раздачу и оставьте свои комментарий, если Вы скачали Боец через торрент бесплатно! Внесите свою лепту в развитие PiratBit!
    Комментировать посты могут только пользователи прошедшие не сложную регистрацию
    Показать сообщения:    

    Боец через торрент
    Скачать бесплатно Боец
    Боец скачать торрент
    Боец смотреть онлайн
    Cкачать фильм Боец бесплатно
    Боец скачать торрент в хорошем качестве
    Боец смотреть онлайн бесплатно в хорошем качестве


    Вы не можете начинать темы
    Вы не можете отвечать на сообщения
    Вы не можете редактировать свои сообщения
    Вы не можете удалять свои сообщения
    Вы не можете голосовать в опросах
    Вы не можете прикреплять файлы к сообщениям
    Вы можете скачивать файлы