Ссылка на приватное зеркало нашего сайта всего за 1$. Внимание количество ограничено!!!

2 сезон

iTunes

1 сезон

1

iTunes

iTunes

iTunes

1 сезон

RePack

30

ИГРА 18+

pack

ВАЖНО

!!Акция!!

Alien_RageХит недели

RePack

MK11
pack

Забери бонус

RePack

jed

!!Акция!!

Alien_Rage

RePack

fifa19

RePack

Assassins Creed: Odyssey

RePack

NEED FOR SPEED™ PAYBACK

4 сезон

9 сезон

Бесстыжие 9 сезон

Все сериалы

все сериалы на PB.wtf

RePack

FAR CRY 5
  

Кроличья нора / Rabbit Hole (Джон Кэмерон Митчелл) [2010 г., драма, BDRip (720p)] pb.wtf

Кроличья нора через торрент pb.wtf

Размер: 5.33 GB | Добавлен: 9 лет 6 мес. назад | Торрент скачан:21 раз
Скачать  

17-04-2011 10:49 Кроличья нора Скачать торрент  

Кроличья нора / Rabbit Hole

Год выпуска: 2010
Страна: США
Жанр:ДрамаПродолжительность: 91 мин.
Перевод: Профессиональный (полное дублирование)

Режиссер: Джон Кэмерон Митчелл
Продюссер: Пер Саари, Николь Кидман, Лесли Урдэнг
Сценарий: Дэвид Линдси-Эбейр

Бюджет: $10 000 000


PG-13
-Детям до 13 лет просмотр не желателен
Мировой рейтинг IMDB 7.40 (7 683)



В ролях: Николь Кидман, Аарон Экхарт, Дайэнн Уист, Майлз Теллер, Тэмми Бланчард, Сандра О, Джанкарло Эспозито, Джон Тенни, Стефен Мэйлер, Майк До

Описание: Восемь месяцев назад в семье Хауи и Бекки Корбетт произошла страшная трагедия — погиб их маленький сын. От ее последствий супруги не могут оправиться до сих пор. Каждый по-своему пытается восстановить душевный покой: Хауи играет в сквош с друзьями, Бекка проводит целые дни у плиты, оба ищут поддержки в группах психологической взаимопомощи. Но время идет, а все усилия остаются тщетными. Брак трещит по швам, отношения с родными напряжены до предела, круг общения сокращается на глазах. Парадоксальным образом, луч надежды пробивает пелену безнадежности, когда судьба сводит Бекку с невольным виновником их несчастий — юным автором комиксов Джейсоном. Вместе героям предстоит понять, затягиваются ли раны прошлого хоть когда-нибудь.

Качество: BDRip (720p)
Контейнер: MKV
Видео: 1280x720, x264@L4.1, 5332 kbps, 23.976 fps
Аудио #1: Русский DTS 5.1, 48 KHz, 1510 kbps - Дубляж, R5
Аудио #2: Английский DTS 5.1, 48 KHz, 1510 kbps
Субтитры: русские (R5), английские
скриншот   скриншот   скриншот   скриншот   скриншот   скриншот  

Код:

Общее
Уникальный идентификатор : 170345445251599161627637855374851216444 (0x802756E2436408B4A26BFE8FE7A0943C)
Полное имя : Rabbit.Hole.2010.720p.BluRay.Rus.Eng.mkv
Формат : Matroska
Размер файла : 5,33 Гбайт
Продолжительность : 1 ч. 31 м.
Общий поток : 8349 Кбит/сек
Название фильма : Rabbit Hole (2010)
Дата кодирования : UTC 2011-04-16 00:44:49
Программа кодирования : mkvmerge v3.4.0 ('Rapunzel') built on May 15 2010 09:38:20
Библиотека кодирования : libebml v0.8.0 + libmatroska v0.9.0
Видео
Идентификатор : 1
Формат : AVC
Формат/Информация : Advanced Video Codec
Профиль формата : High@L4.1
Параметр CABAC формата : Да
Параметр ReFrames формата : 5 кадры
Идентификатор кодека : V_MPEG4/ISO/AVC
Продолжительность : 1 ч. 31 м.
Битрейт : 5332 Кбит/сек
Ширина : 1280 пикс.
Высота : 720 пикс.
Соотношение сторон : 16:9
Частота кадров : 23,976 кадр/сек
Цветовое пространство : YUV
Подвыборка цветности : 4:2:0
Битовая глубина : 8 бит
Тип развёртки : Прогрессивная
Бит/(Пиксели*Кадры) : 0.241
Размер потока : 3,30 Гбайт (62%)
Библиотека кодирования : x264 core 115 r1936 7a9e08d
Настройки программы : cabac=1 / ref=5 / deblock=1:0:0 / analyse=0x3:0x113 / me=umh / subme=8 / psy=1 / psy_rd=1.00:0.00 / mixed_ref=1 / me_range=16 / chroma_me=1 / trellis=1 / 8x8dct=1 / cqm=0 / deadzone=21,11 / fast_pskip=1 / chroma_qp_offset=-2 / threads=12 / sliced_threads=0 / nr=0 / decimate=1 / interlaced=0 / bluray_compat=0 / constrained_intra=0 / bframes=3 / b_pyramid=2 / b_adapt=2 / b_bias=0 / direct=3 / weightb=1 / open_gop=0 / weightp=2 / keyint=240 / keyint_min=24 / scenecut=40 / intra_refresh=0 / rc_lookahead=50 / rc=2pass / mbtree=1 / bitrate=5332 / ratetol=1.0 / qcomp=0.60 / qpmin=0 / qpmax=69 / qpstep=4 / cplxblur=20.0 / qblur=0.5 / ip_ratio=1.40 / aq=1:1.00
Язык : English
Аудио #1
Идентификатор : 2
Формат : DTS
Формат/Информация : Digital Theater Systems
Идентификатор кодека : A_DTS
Продолжительность : 1 ч. 31 м.
Вид битрейта : Постоянный
Битрейт : 1510 Кбит/сек
Канал(ы) : 6 канала(ов)
Расположение каналов : Front: L C R, Side: L R, LFE
Частота : 48,0 КГц
Битовая глубина : 24 бит
Метод сжатия : С потерями
Размер потока : 988 Мбайт (18%)
Заголовок : DTS 5.1ch 1510 kbps - Дубляж, R5
Язык : Russian
Аудио #2
Идентификатор : 3
Формат : DTS
Формат/Информация : Digital Theater Systems
Идентификатор кодека : A_DTS
Продолжительность : 1 ч. 31 м.
Вид битрейта : Постоянный
Битрейт : 1510 Кбит/сек
Канал(ы) : 6 канала(ов)
Расположение каналов : Front: L C R, Side: L R, LFE
Частота : 48,0 КГц
Битовая глубина : 24 бит
Метод сжатия : С потерями
Задержка видео : 11 мс.
Размер потока : 988 Мбайт (18%)
Заголовок : DTS 5.1ch 1510 kbps
Язык : English
Текст #1
Идентификатор : 4
Формат : UTF-8
Идентификатор кодека : S_TEXT/UTF8
Идентификатор кодека/Информация : UTF-8 Plain Text
Заголовок : R5
Язык : Russian
Текст #2
Идентификатор : 5
Формат : UTF-8
Идентификатор кодека : S_TEXT/UTF8
Идентификатор кодека/Информация : UTF-8 Plain Text
Язык : English
Меню
00:00:00.000 : en:00:00:00.000
00:04:13.837 : en:00:04:13.837
00:07:42.295 : en:00:07:42.295
00:11:24.767 : en:00:11:24.767
00:19:34.924 : en:00:19:34.924
00:24:58.288 : en:00:24:58.288
00:34:38.910 : en:00:34:38.910
00:39:10.431 : en:00:39:10.431
00:43:45.915 : en:00:43:45.915
00:49:49.153 : en:00:49:49.153
00:57:16.099 : en:00:57:16.099
01:04:46.549 : en:01:04:46.549
01:09:04.432 : en:01:09:04.432
01:14:28.172 : en:01:14:28.172
01:21:16.580 : en:01:21:16.580
01:24:59.803 : en:01:24:59.803

pb.wtf



Скачать Кроличья нора через торрент http://pic.phyrefile.com/a/ap/aplacid/2011/04/15/rhole.jpg Скачать фильм Кроличья нора через торрент бесплантно в хорошем качестве Описание: Восемь месяцев назад в семье Хауи и Бекки Корбетт произошла страшная трагедия — погиб их маленький сын. От ее последствий ... 4 10 3
Info! Золотая раздача, скачанное не засчитывается.
Торрент: Зарегистрирован [2011-04-17 10:49] · скачан: 21 раз
Статус: √ проверено
Размер: 5.33 GB
Как cкачать? Как скачать Кроличья нора через торрент | qTorrent

% Раздел Тема Автор DL S | L
Фильмы 2010 [ 2.52 GB ] Кроличья нора / Rabbit Hole [2010 BDRip-AVC от sokol_ok] + AVO [Сербин] sokol_ok Скачать
2 | 0
Фильмы 2010 [ 1.51 GB ] Кроличья нора / Rabbit Hole [2010 BDRip-AVC от sokol_ok] sokol_ok Скачать
2 | 0
Гонзо [ 1.36 GB ] Вниз по кроличьей норе / Down The Rabbit Hole [2013 All Sex Oral Anal Gonzo DVDRip-AVC Оригинал] sheker187 Скачать
1 | 0
Космос [ 667 MB ] "Что мы знаем: Вниз по Кроличьей Норе." / "What the Bleep!?: Down the Rabbit Hole." [2006 Документальный] Димон_ Скачать
1 | 0
Фильмы 2010 [ 1.37 GB ] Кроличья нора / Rabbit Hole [2010 DVDRip лицензия] L_E_X Скачать
1 | 0
Фильмы 2010 [ 1.37 GB ] Кроличья нора / Rabbit Hole [2010 HDRip лицензия] Lil Badun Скачать
1 | 0
Фильмы 2010 [ 702 MB ] Кроличья нора / Rabbit Hole [2010 DVDRip] 700mb кэп Скачать
1 | 0

28-11-2019 20:33  

Отключить всю рекламу на сайте

    Дорогой пользователь! Огромная просьба, поблагодарите релизера, оцените раздачу и оставьте свои комментарий, если Вы скачали Кроличья нора через торрент бесплатно! Внесите свою лепту в развитие PiratBit!
    Комментировать посты могут только пользователи прошедшие не сложную регистрацию
    Показать сообщения:    

    Кроличья нора через торрент
    Скачать бесплатно Кроличья нора
    Кроличья нора скачать торрент
    Кроличья нора смотреть онлайн
    Cкачать фильм Кроличья нора бесплатно
    Кроличья нора скачать торрент в хорошем качестве
    Кроличья нора смотреть онлайн бесплатно в хорошем качестве


    Вы не можете начинать темы
    Вы не можете отвечать на сообщения
    Вы не можете редактировать свои сообщения
    Вы не можете удалять свои сообщения
    Вы не можете голосовать в опросах
    Вы не можете прикреплять файлы к сообщениям
    Вы можете скачивать файлы