1 сезон

3 сезон

iTunes

1

Line

MVO

iTunes

13

1 сезон

RePack

30

Deluxe

pack

Лицензия

ВАЖНО

ИГРА 18+

pack

RePack

MK11

RePack

jed

RePack

fifa19

RePack

RDR2

RePack

NEED FOR SPEED™ PAYBACK

4 сезон

9 сезон

Бесстыжие 9 сезон

Все сериалы

все сериалы на PB.wtf

RePack

FAR CRY 5

Anonymous, добрый вечер, мы катастрофически не успеваем собрать деньги на оплату серверов, помогите нам пожалуйста 5,10,15р., для нас важна любая помощь . В качестве благодарности мы отключим Вам всю рекламу на сайте (укажите свой ник в строку Ваше имя)!

×
  
Magnet ссылка

Стан Хельсинг / Stan Helsing (Бо Дзенга / Bo Zenga) [2009, США, Канада, ужасы, комедия, DVD5] R5 «West Video» pb.wtf

Стан Хельсинг через торрент pb.wtf

Размер: 4.22 GB | Добавлен: 10 лет назад | Торрент скачан:34 раза
Скачать  

19-04-2011 09:54 Стан Хельсинг Скачать торрент  


Стан Хельсинг / Stan Helsing
«Самые стрёмные монстры собрались потусить!»
Страна: США, Канада
Студия: Boz Productions, Helsing Releasing, Insight Film and Video Production Inc., Stone Village Productio, TADORA Filmproduktions
Жанр: ужасы, комедия
Год выпуска: 2009
Мировая премьера: 21 октября 2009
Российская премьера: 25 марта 2010, «West»
Дата выхода DVD: 29 марта 2011, «West Video»
Продолжительность: 1:28:15
Перевод: Профессиональный (дублированный) [Лицензия]
Cубтитры: русские, украинские
Оригинальная аудиодорожка: английский
Режиссер: Бо Дзенга / Bo Zenga
В ролях: Стив Хоуи, Диора Бэрд, Кенан Томпсон, Дези Лайдик, Лесли Нильсен, Кит Дзенга, Даррен Мур, Твэн Холлидэй, Бен Коттон, Трэвис МакДональд
Описание: Жители этого городка давно страдают от нападок монстров. На протяжении многих лет их пугают, убивают… Но вот появился он! Все взоры обращены на него, с надеждой люди ждут помощи от нашего героя. Его фамилия вносит страх и дрожь в ряды злодеев — Хельсинг. Его имя заставляет всех смеяться — Стэн! Ему предстоит встретиться в нечестном бою с шестью самыми известными экранными маньяками и монстрами современности: Кожаное лицо, Фредди Крюгер, Пинхэд, Чаки, Джейсон, Майерс, а так же с вампирами, зомби и жуками-убийцами. Да пребудет с ним сила!..
Бонусы: Анонсы, трейлер

Качество: DVD5 R5
Формат: DVD-Video
Видео кодек: MPEG2
Аудио кодек: AC3
Видео: PAL 16:9 (720x576(0.481)) MPEG Video,25,000 кадр/сек, 4992 Кбит/сек
Аудио: Russian / English (Dolby AC3, 6 ch) 384 Кбит/сек, 48,0 КГц



Title:
Size: 4.22 Gb ( 4 421 652 KBytes ) - DVD-5
Enabled regions: 1, 2, 3, 4, 5, 6, 7, 8

VTS_01 :
Play Length: 00:00:23
Video: PAL 4:3 (720x576) VBR

VTS_02 :
Play Length: 00:00:31
Video: PAL 4:3 (720x576) VBR
Audio:
English (Dolby AC3, 6 ch)

VTS_03 :
Play Length: 00:02:16
Video: PAL 16:9 (720x576) VBR, Auto Pan&Scan
Audio:
Russian (Dolby AC3, 2 ch)
Russian (Dolby AC3, 2 ch)

VTS_04 :
Play Length: 00:01:54
Video: PAL 16:9 (720x576) VBR, Auto Pan&Scan
Audio:
Russian (Dolby AC3, 2 ch)
English (Dolby AC3, 2 ch)

VTS_05 :
Play Length: 00:01:43
Video: PAL 4:3 (720x576) VBR
Audio:
Russian (Dolby AC3, 2 ch)
Russian (Dolby AC3, 2 ch)

VTS_06 :
Play Length: 01:28:15
Video: PAL 16:9 (720x576) VBR, Auto Pan&Scan, Auto Letterboxed
Audio:
Russian (Dolby AC3, 6 ch)
English (Dolby AC3, 6 ch)
Subtitles:
Russian
Ukrainian
Общее
Полное имя : F:\Новинки 2011\Stan.Helsing\VTS_06_2.VOB
Формат : MPEG-PS
Размер файла : 1024 Мбайт
Продолжительность : 24 м.
Общий поток : 5877 Кбит/сек

Видео
Идентификатор : 224 (0xE0)
Формат : MPEG Video
Версия формата : Version 2
Профиль формата : Main@Main
Параметр BVOP формата : Да
Параметр матрицы формата : По умолчанию
Продолжительность : 24 м.
Вид битрейта : Переменный
Битрейт : 4992 Кбит/сек
Номинальный битрейт : 9800 Кбит/сек
Ширина : 720 пикс.
Высота : 576 пикс.
Соотношение сторон : 16:9
Частота кадров : 25,000 кадр/сек
Стандарт вещания : PAL
Цветовое пространство : YUV
Подвыборка цветности : 4:2:0
Битовая глубина : 8 бит
Тип развёртки : Чересстрочная
Порядок развёртки : Верхнее поле первое
Метод сжатия : С потерями
Бит/(Пиксели*Кадры) : 0.481
Размер потока : 869 Мбайт (85%)

Аудио #1
Идентификатор : 189 (0xBD)-128 (0x80)
Формат : AC-3
Формат/Информация : Audio Coding 3
Расширение режима : CM (complete main)
Режим смешивания : DVD-Video
Продолжительность : 24 м.
Вид битрейта : Постоянный
Битрейт : 384 Кбит/сек
Канал(ы) : 6 канала(ов)
Расположение каналов : Front: L C R, Side: L R, LFE
Частота : 48,0 КГц
Битовая глубина : 16 бит
Метод сжатия : С потерями
Задержка видео : -696 мс.
Размер потока : 66,9 Мбайт (7%)

Аудио #2
Идентификатор : 189 (0xBD)-129 (0x81)
Формат : AC-3
Формат/Информация : Audio Coding 3
Расширение режима : CM (complete main)
Режим смешивания : DVD-Video
Продолжительность : 24 м.
Вид битрейта : Постоянный
Битрейт : 384 Кбит/сек
Канал(ы) : 6 канала(ов)
Расположение каналов : Front: L C R, Side: L R, LFE
Частота : 48,0 КГц
Битовая глубина : 16 бит
Метод сжатия : С потерями
Задержка видео : -696 мс.
Размер потока : 66,9 Мбайт (7%)










pb.wtf



Скачать Стан Хельсинг через торрент http://i19.fastpic.ru/big/2011/0418/bc/6a5a9edb85d88a439cb45ae9e35c96bc.jpg Скачать фильм Стан Хельсинг через торрент бесплантно в хорошем качестве Описание: Жители этого городка давно страдают от нападок монстров. На протяжении многих лет их пугают, убивают… Но вот появился он! Все ... 4.3 10 6
Info! Золотая раздача, скачанное не засчитывается.
Торрент: Зарегистрирован [2011-04-19 09:54] · скачан: 34 раз
Статус: √ проверено
Размер: 4.22 GB
Как cкачать? Как скачать Стан Хельсинг через торрент | UTorrent

28-11-2019 20:33  

Отключить всю рекламу на сайте

19-04-2011 13:18 Стан Хельсинг Скачать торрент  

Рейтинг 2,74 ой как впечатляет :Dpb.wtf



19-04-2011 14:59 Стан Хельсинг Скачать торрент  

Лесли Нильсен R.I.P

з.ы
фильм УГ к просмотру запрещен !pb.wtf



21-04-2011 09:24 Стан Хельсинг Скачать торрент  

полная дурь... pb.wtf



    Дорогой пользователь! Огромная просьба, поблагодарите релизера, оцените раздачу и оставьте свои комментарий, если Вы скачали Стан Хельсинг через торрент бесплатно! Внесите свою лепту в развитие PiratBit!
    Комментировать посты могут только пользователи прошедшие не сложную регистрацию
    Показать сообщения:    

    Стан Хельсинг через торрент
    Скачать бесплатно Стан Хельсинг
    Стан Хельсинг скачать торрент
    Стан Хельсинг смотреть онлайн
    Cкачать фильм Стан Хельсинг бесплатно
    Стан Хельсинг скачать торрент в хорошем качестве
    Стан Хельсинг смотреть онлайн бесплатно в хорошем качестве


    Вы не можете начинать темы
    Вы не можете отвечать на сообщения
    Вы не можете редактировать свои сообщения
    Вы не можете удалять свои сообщения
    Вы не можете голосовать в опросах
    Вы не можете прикреплять файлы к сообщениям
    Вы можете скачивать файлы