1 сезон

3 сезон

iTunes

1

iTunes

MVO

iTunes

13

1 сезон

RePack

30

Deluxe

pack

Лицензия

ВАЖНО

ИГРА 18+

pack

RePack

MK11

RePack

jed

RePack

fifa19

RePack

RDR2

RePack

NEED FOR SPEED™ PAYBACK

4 сезон

9 сезон

Бесстыжие 9 сезон

Все сериалы

все сериалы на PB.wtf

RePack

FAR CRY 5

Anonymous, добрый день, мы катастрофически не успеваем собрать деньги на оплату серверов, помогите нам пожалуйста 5,10,15р., для нас важна любая помощь . В качестве благодарности мы отключим Вам всю рекламу на сайте (укажите свой ник в строку Ваше имя)!

×
  
Magnet ссылка

Школа выживания выпускников / Post Grad (Вики Дженсон / Vicky Jenson) [2009, США, мелодрама, комедия, DVD9] R5 «Двадцатый Век Фокс СНГ» pb.wtf

Школа выживания выпускников через торрент pb.wtf

Размер: 7.26 GB | Добавлен: 10 лет назад | Торрент скачан:12 раз
Скачать  

19-04-2011 22:37 Школа выживания выпускников Скачать торрент  


Школа выживания выпускников / Post Grad
«Now What?»
Страна: США
Студия: Cold Spring Pictures, Fox Atomic, The Montecito Picture Company
Жанр: мелодрама, комедия
Год выпуска: 2009
Мировая премьера: 13 августа 2009
Дата выхода DVD: 21 апреля 2011, «Двадцатый Век Фокс СНГ»
Продолжительность: 01:24:59
Перевод: Профессиональный (многоголосый закадровый) [Лицензия]
Cубтитры: русские, английские, итальянские, чешские, хорватские, арабские, греческие, словенские, итальянские
Оригинальная аудиодорожка: английский
Режиссер: Вики Дженсон / Vicky Jenson
В ролях: Алексис Бледел, Зэк Гилфорд, Майкл Китон, Джейн Линч, Бобби Коулмэн, Кэрол Бёрнетт, Родриго Санторо, Катрин Рейтман, Мэри Энн МакГарри, Дж.К. Симмонс
Описание: Выпускница колледжа Риден Мэлби вынуждена вернуться домой к весьма эксцентричному семейству. Во время поиска работы она встречает правильного парня Адама, влюбляется в него и понемногу начинает понимать, как надо жить.
Бонусы: Удаленные и альтернативные сцены, видеоклип "One Day" Джека Саворетти, жизненные советы от Алексис Бледел и Зэка Гилфорда, помните о своих сильных сторонах: советы по карьере и другие советы от "Школы выживания"!

Качество: DVD9 R5
Формат: DVD-Video
Видео кодек: MPEG2
Аудио кодек: AC3
Видео: PAL 16:9 (720x576(0.553)) MPEG Video,25,000 кадр/сек, 5736 Кбит/сек
Аудио #1: English (Dolby AC3, 6 ch) 448 Кбит/сек, 48,0 КГц
Аудио #2: Italiano (Dolby AC3, 6 ch) 384 Кбит/сек, 48,0 КГц
Аудио #3: Russian (Dolby AC3, 6 ch) 384 Кбит/сек, 48,0 КГц
Аудио #4: Czech(Ceske) (Dolby AC3, 6 ch) 384 Кбит/сек, 48,0 КГц



Title: Мой диск
Size: 7.26 Gb ( 7 614 851 KBytes ) - DVD-9
Enabled regions: 1, 2, 3, 4, 5, 6, 7, 8

VTS_01 :
Play Length: 01:24:58+00:00:01
Video: PAL 16:9 (720x576) VBR, Auto Pan&Scan
Audio:
English (Dolby AC3, 6 ch)
Italiano (Dolby AC3, 6 ch)
Russian (Dolby AC3, 6 ch)
Czech(Ceske) (Dolby AC3, 6 ch)
Subtitles:
English
Italiano
Russian
Hrvatski
Czech(Ceske)
Arabic
Greek
Slovenian
Italiano
Russian
Czech(Ceske)

VTS_02 :
Play Length: 00:00:07+00:00:57+00:00:06
Video: PAL 16:9 (720x576) VBR, Auto Letterboxed

VTS_03 :
Play Length: 00:00:28+00:01:48+00:01:54
Video: PAL 16:9 (720x576) VBR, Auto Pan&Scan
Audio:
Not specified (Dolby AC3, 6 ch)
Subtitles:
Not specified
Not specified
Not specified
Not specified

VTS_04 :
Play Length: 00:01:02+00:00:39
Video: PAL 16:9 (720x576) VBR, Auto Pan&Scan
Audio:
Not specified (Dolby AC3, 2 ch)
Subtitles:
Not specified
Not specified
Not specified
Not specified

VTS_05 :
Play Length: 00:13:41+00:00:35+00:00:25+00:02:23+00:01:06+00:00:58+00:01:37+00:01:13+00:01:48+00:00:44+00:02:59+00:03:36+00:02:04
Video: PAL 4:3 (720x576) VBR
Audio:
English (Dolby AC3, 2 ch)
Subtitles:
Italiano
Russian
Czech(Ceske)

VTS_06 :
Play Length: 00:04:16+00:05:56+00:03:24+00:02:53+00:13:51
Video: PAL 16:9 (720x576) VBR, Auto Pan&Scan
Audio:
English (Dolby AC3, 2 ch)
Subtitles:
Italiano
Russian
Czech(Ceske)
Общее
Полное имя : F:\Новинки 2011\Shkola.vizhivaniya.vipusknikov.2009.DVD9\VIDEO_TS\VTS_01_2.VOB
Формат : MPEG-PS
Размер файла : 1024 Мбайт
Продолжительность : 19 м.
Общий поток : 7485 Кбит/сек

Видео
Идентификатор : 224 (0xE0)
Формат : MPEG Video
Версия формата : Version 2
Профиль формата : Main@Main
Параметр BVOP формата : Да
Параметр матрицы формата : По умолчанию
Параметры GOP формата : M=3, N=12
Продолжительность : 19 м.
Вид битрейта : Переменный
Битрейт : 5736 Кбит/сек
Номинальный битрейт : 9800 Кбит/сек
Ширина : 720 пикс.
Высота : 576 пикс.
Соотношение сторон : 16:9
Частота кадров : 25,000 кадр/сек
Стандарт вещания : Component
Цветовое пространство : YUV
Подвыборка цветности : 4:2:0
Битовая глубина : 8 бит
Тип развёртки : Прогрессивная
Порядок развёртки : Верхнее поле первое
Метод сжатия : С потерями
Бит/(Пиксели*Кадры) : 0.553
Размер потока : 785 Мбайт (77%)

Аудио #1
Идентификатор : 189 (0xBD)-128 (0x80)
Формат : AC-3
Формат/Информация : Audio Coding 3
Расширение режима : CM (complete main)
Режим смешивания : DVD-Video
Продолжительность : 19 м.
Вид битрейта : Постоянный
Битрейт : 448 Кбит/сек
Канал(ы) : 6 канала(ов)
Расположение каналов : Front: L C R, Side: L R, LFE
Частота : 48,0 КГц
Битовая глубина : 16 бит
Метод сжатия : С потерями
Задержка видео : -288 мс.
Размер потока : 61,3 Мбайт (6%)

Аудио #2
Идентификатор : 189 (0xBD)-129 (0x81)
Формат : AC-3
Формат/Информация : Audio Coding 3
Расширение режима : CM (complete main)
Режим смешивания : DVD-Video
Продолжительность : 19 м.
Вид битрейта : Постоянный
Битрейт : 384 Кбит/сек
Канал(ы) : 6 канала(ов)
Расположение каналов : Front: L C R, Side: L R, LFE
Частота : 48,0 КГц
Битовая глубина : 16 бит
Метод сжатия : С потерями
Задержка видео : -288 мс.
Размер потока : 52,5 Мбайт (5%)

Аудио #3
Идентификатор : 189 (0xBD)-130 (0x82)
Формат : AC-3
Формат/Информация : Audio Coding 3
Расширение режима : CM (complete main)
Режим смешивания : DVD-Video
Продолжительность : 19 м.
Вид битрейта : Постоянный
Битрейт : 384 Кбит/сек
Канал(ы) : 6 канала(ов)
Расположение каналов : Front: L C R, Side: L R, LFE
Частота : 48,0 КГц
Битовая глубина : 16 бит
Метод сжатия : С потерями
Задержка видео : -288 мс.
Размер потока : 52,5 Мбайт (5%)

Аудио #4
Идентификатор : 189 (0xBD)-131 (0x83)
Формат : AC-3
Формат/Информация : Audio Coding 3
Расширение режима : CM (complete main)
Режим смешивания : DVD-Video
Продолжительность : 19 м.
Вид битрейта : Постоянный
Битрейт : 384 Кбит/сек
Канал(ы) : 6 канала(ов)
Расположение каналов : Front: L C R, Side: L R, LFE
Частота : 48,0 КГц
Битовая глубина : 16 бит
Метод сжатия : С потерями
Задержка видео : -288 мс.
Размер потока : 52,5 Мбайт (5%)










pb.wtf



Скачать Школа выживания выпускников через торрент http://i20.fastpic.ru/big/2011/0420/b1/e73b3f79b320d99ab4fce831a2ea3ab1.jpg Скачать фильм Школа выживания выпускников через торрент бесплантно в хорошем качестве Описание: Выпускница колледжа Риден Мэлби вынуждена вернуться домой к весьма эксцентричному семейству. Во время поиска работы она встречает ... 5 10 3
Info! Золотая раздача, скачанное не засчитывается.
Торрент: Зарегистрирован [2011-04-19 22:37] · скачан: 12 раз
Статус: √ проверено
Размер: 7.26 GB
Как cкачать? Как скачать Школа выживания выпускников через торрент | UTorrent

28-11-2019 20:33  

Отключить всю рекламу на сайте

    Дорогой пользователь! Огромная просьба, поблагодарите релизера, оцените раздачу и оставьте свои комментарий, если Вы скачали Школа выживания выпускников через торрент бесплатно! Внесите свою лепту в развитие PiratBit!
    Комментировать посты могут только пользователи прошедшие не сложную регистрацию
    Показать сообщения:    

    Школа выживания выпускников через торрент
    Скачать бесплатно Школа выживания выпускников
    Школа выживания выпускников скачать торрент
    Школа выживания выпускников смотреть онлайн
    Cкачать фильм Школа выживания выпускников бесплатно
    Школа выживания выпускников скачать торрент в хорошем качестве
    Школа выживания выпускников смотреть онлайн бесплатно в хорошем качестве


    Вы не можете начинать темы
    Вы не можете отвечать на сообщения
    Вы не можете редактировать свои сообщения
    Вы не можете удалять свои сообщения
    Вы не можете голосовать в опросах
    Вы не можете прикреплять файлы к сообщениям
    Вы можете скачивать файлы