Ссылка на приватное зеркало нашего сайта всего за 1$. Внимание количество ограничено!!!

2 сезон

iTunes

1 сезон

1

iTunes

iTunes

iTunes

1 сезон

RePack

30

ИГРА 18+

pack

ВАЖНО

!!Акция!!

Alien_RageХит недели

RePack

MK11
pack

Забери бонус

RePack

jed

!!Акция!!

Alien_Rage

RePack

fifa19

RePack

Assassins Creed: Odyssey

RePack

NEED FOR SPEED™ PAYBACK

4 сезон

9 сезон

Бесстыжие 9 сезон

Все сериалы

все сериалы на PB.wtf

RePack

FAR CRY 5
  

Высший пилотаж (1 сезон - 16 серий из 16) (Александр Щурихин) [2009 г., мелодрама, комедия, приключения, DVDRip] pb.wtf

Высший пилотаж через торрент pb.wtf

Размер: 8.67 GB | Добавлен: 9 лет 6 мес. назад | Торрент скачан:2 раза
Скачать  

20-04-2011 17:19 Высший пилотаж Скачать торрент  




Высший пилотаж (1 сезон - 16 серий из 16)



Год выпуска: 2009
Страна: Россия

Жанр: мелодрама, комедия, приключения
Продолжительность: 16 х ~ 00:45:00
Перевод: Не требуется
Режиссер: Александр Щурихин
Продюссер: Наталия Прибылова, Станислав Прибылов
Сценарий: Дмитрий Каморин

В ролях: Сергей Карякин, Ольга Ломоносова, Мария Горбань, Борис Щербаков, Анатолий Калмыков, Иван Суханов, Олег Карин, Павел Капитонов, Кирилл Петров, Константин Третьяков, Александр Ермаков, Сергей Гирин, Игорь Литовкин, Александр Никулин, Владимир Лаптев

Описание: Речь в сериале идет об основных ценностных ориентирах в жизни современного человека: о дружбе и любви, о сплоченности и соперничестве, о карьере и романтизме профессии летчика. Каждая серия — отдельная история со своим сюжетом. Команда «Аэруса» всегда попадает в какую-нибудь внештатную ситуацию, из которой достойно выбирается. Интересна любовная линия - а как же без любовного треугольника? Женская половина экипажа Ил-86 влюблена в нового пилота Серёгу, он молод и хорош собой. Но кому из девушек красавчик ответит взаимностью - Марусе или Наталье? Страсти кипят. События развиваются динамично. Это своеобразная история об испытаниях на небе и земле. О том, как иногда в тяжёлые минуты, общая надежда и профессионализм соединяет самых разных людей. Забыв все свои ссоры, обиды и неприязни они «пролетают» через экстремальные ситуации, предотвращают катастрофы и спасают жизни пассажиров. Они любят небо, они им живут. Неплохой пример настоящих работников гражданской авиации. «У человеческой жизни нет цены, но мы всегда поступаем так, словно существует нечто еще более ценное», как сказал Антуан де Сент-Экзюпери.
Качество: DVDRip

Формат: AVI
Видео кодек: XviD
Аудио кодек: MP3

Видео: 704x416 (1.69:1), 25 fps, XviD Final 1.0.3 (build 37) ~1573 kbps avg, 0.22 bit/pixel
Аудио: 48 kHz, MPEG Layer 3, 2 ch, ~128.00 kbps avg


Мировой рейтинг IMDB


Боевой летчик Сергей Васильев, уволенный из армии по сокращению штатов, приходит вторым пилотом в экипаж гражданской авиакомпании. Молодой, но уже опытный профессионал, налетавший сотни часов на разных типах самолетов, впервые летит пассажирским Ил-86.
В этом рейсе Сергею придется нелегко, ведь он еще не сталкивался лицом к лицу с главным стихийным бедствием любого лайнера, имя которому - пассажиры.
Во время любого рейса множество совершенно разных людей оказываются запертыми в ограниченном пространстве салона лайнера. Хороший сервис, непродолжительное время полета и достаточно комфортные условия позволяют пассажирам без особого труда пережить эти несколько непростых часов.
Все меняется, когда в ожидании разрешения на взлет, самолет несколько часов стоит под палящими лучами солнца одной из центральноазиатских стран. Все самое хорошее и самое плохое в характерах людей проявляется в экстремальной ситуации. Тем более что в салоне жуткое пекло и кончаются запасы воды на борту.
Нечистый на руку "бизнесмен" под предлогом организации гастролей вывозит в Турцию девичью танцевальную группу. На самом деле он продает русских красавиц в местный бордель. Одной из них удается бежать.
Единственный человек, которого женщина знает в чужой стране - бортинженер экипажа Геннадий Сапронов. Российский экипаж не может бросить в беде своих соотечественниц. Они должны помочь девушкам вырваться из плена и вернуться на родину.
Для каждого родителя его ребенок - самый лучший, добрый и послушный. Но когда две с лишним сотни милых чад состоятельных родителей оказываются на борту самолета, летящего в испанский летний лагерь, в сопровождении всего лишь двух воспитательниц, они способны превратить обычный полет в ад для экипажа. Достойные наследники "вождя краснокожих" не дают расслабиться ни на секунду!
Веерное отключение оставляет без электричества большие города и маленькие поселки огромного таежного региона, а также вызывает аварию на запасном аэродроме, куда направляется самолет с героями сериала. Запас топлива не позволяет лететь дальше, и надо совершать вынужденную посадку. Но как, если кругом непроглядная тьма, и на земле не видно никаких ориентиров?
Летчики гражданской авиации – люди, далекие от шпионских игр. Однако если на борту происходит преступление, вся полнота власти переходит к командиру воздушного судна, который должен провести расследование и не дать предателю-перебежчику покинуть пределы родины. Последний ее островок – это салон российского самолета.
К угонам автомобилей все мы привыкли. Они стали обыденностью. Но каково же было удивление экипажа, когда сообщили, что пропал их самолет! Положение существенно осложнено тем, что на судно загружено дорогое и секретное оборудование, которое не должно попасть за границу. Как найти в безбрежном пятом океане единственный борт?
Африка – континент, где государственный переворот может произойти за то время, пока самолет с пассажирами доберется до него из холодной Москвы. В стране объявлено военное положение, и все аэропорты закрыты.
Естественно, в создавшейся ситуации местным политикам нет никакого дела до пассажиров, экипажа и самолета, который оказался предоставлен сам себе на семи африканских ветрах с ограниченным запасом топлива.
По требованию американской военной администрации в одной из ближневосточных стран эвакуацию российской дипмиссии должен выполнять самолет и экипаж гражданской авиакомпании. Нужны добровольцы.
Положение осложняется еще и тем, что на взлетной полосе стоит поврежденный самолет, а около аэропорта, где ждут вылета россияне, идет напряженный бой.
Незначительная техническая неисправность приводит к летному происшествию, в результате которого никто не пострадал, но второй пилот Сергей Васильев был незаслуженно обвинен в случившемся.
Сергей уходит из авиакомпании и вербуется летать на Крайнем Севере. Разлука становится хорошей проверкой чувств, возникших между ним и бортпроводницей Марусей – дочерью командира экипажа.
Летчики – люди дисциплинированные. Каждый день они несут на своих плечах ответственность за пассажиров, которые доверили им свою жизнь. Иногда пилотам приходится рисковать собственной карьерой и сотнями пассажиров, чтобы спасти одного-единственного человека. Не каждый решится на такой поступок. А если выбора нет?
Во время рейса из Китая среди пассажиров начинается странная эпидемия. Симптомы напоминают пресловутый птичий грипп. Несколько человек на борту умирают в муках. Когда симптомы неизвестной болезни обнаруживаются у бортпроводницы Маруси, становится понятно, что самолет может не долететь до аэропорта.
На выставке вооружений в одной из арабских стран намечено подписание крупного контракта на поставку наших истребителей. Однако перед этим надо продемонстрировать "товар лицом" во время показательных полетов. Но как это сделать, если два из трех штатных пилотов делегации слегли с желудочной инфекцией? И ничто не спасло бы погоны генералов, возглавивших нашу миссию, от крупного "звездопада", если бы не выяснилось, что в составе экипажа, который привез их на выставку, есть настоящий боевой летчик-ас Сергей Васильев.
Проливные дожди в дальневосточном городе приковывают самолет и экипаж к земле. Во время одного из визитов в службу погоды аэропорта штурман экипажа Михаил Бершидский встречает мальчишку из неблагополучной семьи. Ребенок мечтает о том, что когда-нибудь он сбежит из своего города хоть на край света. Экипаж привязывается к "найденышу" за те несколько дней, которые тот живет с ними в гостинице. Но взять с собой они его не могут. Неужели бедного ребенка придется возвращать пьющим родителям?
Террористы-смертники захватывают самолет. В их планах - взорвать его над Израилем. При поддержке пассажиров опасных преступников удается обезвредить, но на поясе одного из них тикает часовой механизм бомбы, разминировать которую никто из находящихся в самолете не сможет.
Сбылась мечта штурмана экипажа Михаила Бершидского. Он наконец-то впервые посещает свою историческую родину. Впрочем, там ему не понравилось, и он принимает бесповоротное решение встречать старость на своей подмосковной даче.
Авиалайнер возвращается из Израиля в Россию. И все бы хорошо, если бы не совместные учения Украины и НАТО в районе Черного моря: вместо "виртуального" старта происходит настоящий - боевой. Цель - самолет Ил-86 с пассажирами, летящий домой из Тель-Авива.





Код:

Общее
Полное имя                       : G:\_СЕРИАЛЫ\Высший пилотаж\Vysshij.pilotazh.(01.seriya.iz.16).2009.XviD.DVDRip.avi
Формат                           : AVI
Формат/Информация                : Audio Video Interleave
Размер файла                     : 555 Мбайт
Продолжительность                : 45 м.
Общий поток                      : 1712 Кбит/сек
Программа кодирования            : VirtualDubMod 1.5.10.2 (build 2540/release)
Библиотека кодирования           : VirtualDubMod build 2540/release

Видео
Идентификатор                    : 0
Формат                           : MPEG-4 Visual
Профиль формата                  : Advanced Simple@L5
Параметр BVOP формата            : Да
Параметр QPel формата            : Нет
Параметр GMC формата             : Без точки перехода
Параметр матрицы формата         : Default (MPEG)
Режим смешивания                 : Сжатый битовый поток
Идентификатор кодека             : XVID
Идентификатор кодека/Подсказка   : XviD
Продолжительность                : 45 м.
Битрейт                          : 1574 Кбит/сек
Ширина                           : 704 пикс.
Высота                           : 416 пикс.
Соотношение сторон               : 1,692
Частота кадров                   : 25,000 кадр/сек
Цветовое пространство            : YUV
Подвыборка цветности             : 4:2:0
Битовая глубина                  : 8 бит
Тип развёртки                    : Прогрессивная
Метод сжатия                     : С потерями
Бит/(Пиксели*Кадры)              : 0.215
Размер потока                    : 510 Мбайт (92%)
Библиотека кодирования           : XviD 1.0.3 (UTC 2004-12-20)

Аудио
Идентификатор                    : 1
Формат                           : MPEG Audio
Версия формата                   : Version 1
Профиль формата                  : Layer 3
Режим                            : Joint stereo
Расширение режима                : MS Stereo
Идентификатор кодека             : 55
Идентификатор кодека/Подсказка   : MP3
Продолжительность                : 45 м.
Вид битрейта                     : Постоянный
Битрейт                          : 128 Кбит/сек
Канал(ы)                         : 2 канала(ов)
Частота                          : 48,0 КГц
Метод сжатия                     : С потерями
Размер потока                    : 41,5 Мбайт (7%)
Выравнивание                     : Соединение по промежуткам
Продолжительность промежутка     : 40  мс. (1,00 видеокадр)
Время предзагрузки промежутка    : 504 ms

Общее
Полное имя                       : G:\_СЕРИАЛЫ\Высший пилотаж\Vysshij.pilotazh.(02.seriya.iz.16).2009.XviD.DVDRip.avi
Формат                           : AVI
Формат/Информация                : Audio Video Interleave
Размер файла                     : 555 Мбайт
Продолжительность                : 44 м.
Общий поток                      : 1743 Кбит/сек
Программа кодирования            : VirtualDubMod 1.5.10.2 (build 2540/release)
Библиотека кодирования           : VirtualDubMod build 2540/release

Видео
Идентификатор                    : 0
Формат                           : MPEG-4 Visual
Профиль формата                  : Advanced Simple@L5
Параметр BVOP формата            : Да
Параметр QPel формата            : Нет
Параметр GMC формата             : Без точки перехода
Параметр матрицы формата         : Default (MPEG)
Режим смешивания                 : Сжатый битовый поток
Идентификатор кодека             : XVID
Идентификатор кодека/Подсказка   : XviD
Продолжительность                : 44 м.
Битрейт                          : 1605 Кбит/сек
Ширина                           : 704 пикс.
Высота                           : 416 пикс.
Соотношение сторон               : 1,692
Частота кадров                   : 25,000 кадр/сек
Цветовое пространство            : YUV
Подвыборка цветности             : 4:2:0
Битовая глубина                  : 8 бит
Тип развёртки                    : Прогрессивная
Метод сжатия                     : С потерями
Бит/(Пиксели*Кадры)              : 0.219
Размер потока                    : 511 Мбайт (92%)
Библиотека кодирования           : XviD 1.0.3 (UTC 2004-12-20)

Аудио
Идентификатор                    : 1
Формат                           : MPEG Audio
Версия формата                   : Version 1
Профиль формата                  : Layer 3
Режим                            : Joint stereo
Расширение режима                : MS Stereo
Идентификатор кодека             : 55
Идентификатор кодека/Подсказка   : MP3
Продолжительность                : 44 м.
Вид битрейта                     : Постоянный
Битрейт                          : 128 Кбит/сек
Канал(ы)                         : 2 канала(ов)
Частота                          : 48,0 КГц
Метод сжатия                     : С потерями
Размер потока                    : 40,8 Мбайт (7%)
Выравнивание                     : Соединение по промежуткам
Продолжительность промежутка     : 40  мс. (1,00 видеокадр)
Время предзагрузки промежутка    : 504 ms

Общее
Полное имя                       : G:\_СЕРИАЛЫ\Высший пилотаж\Vysshij.pilotazh.(03.seriya.iz.16).2009.XviD.DVDRip.avi
Формат                           : AVI
Формат/Информация                : Audio Video Interleave
Размер файла                     : 555 Мбайт
Продолжительность                : 44 м.
Общий поток                      : 1731 Кбит/сек
Программа кодирования            : VirtualDubMod 1.5.10.2 (build 2540/release)
Библиотека кодирования           : VirtualDubMod build 2540/release

Видео
Идентификатор                    : 0
Формат                           : MPEG-4 Visual
Профиль формата                  : Advanced Simple@L5
Параметр BVOP формата            : Да
Параметр QPel формата            : Нет
Параметр GMC формата             : Без точки перехода
Параметр матрицы формата         : Default (MPEG)
Режим смешивания                 : Сжатый битовый поток
Идентификатор кодека             : XVID
Идентификатор кодека/Подсказка   : XviD
Продолжительность                : 44 м.
Битрейт                          : 1593 Кбит/сек
Ширина                           : 704 пикс.
Высота                           : 416 пикс.
Соотношение сторон               : 1,692
Частота кадров                   : 25,000 кадр/сек
Цветовое пространство            : YUV
Подвыборка цветности             : 4:2:0
Битовая глубина                  : 8 бит
Тип развёртки                    : Прогрессивная
Метод сжатия                     : С потерями
Бит/(Пиксели*Кадры)              : 0.218
Размер потока                    : 511 Мбайт (92%)
Библиотека кодирования           : XviD 1.0.3 (UTC 2004-12-20)

Аудио
Идентификатор                    : 1
Формат                           : MPEG Audio
Версия формата                   : Version 1
Профиль формата                  : Layer 3
Режим                            : Joint stereo
Расширение режима                : MS Stereo
Идентификатор кодека             : 55
Идентификатор кодека/Подсказка   : MP3
Продолжительность                : 44 м.
Вид битрейта                     : Постоянный
Битрейт                          : 128 Кбит/сек
Канал(ы)                         : 2 канала(ов)
Частота                          : 48,0 КГц
Метод сжатия                     : С потерями
Размер потока                    : 41,0 Мбайт (7%)
Выравнивание                     : Соединение по промежуткам
Продолжительность промежутка     : 40  мс. (1,00 видеокадр)
Время предзагрузки промежутка    : 504 ms

Общее
Полное имя                       : G:\_СЕРИАЛЫ\Высший пилотаж\Vysshij.pilotazh.(04.seriya.iz.16).2009.XviD.DVDRip.avi
Формат                           : AVI
Формат/Информация                : Audio Video Interleave
Размер файла                     : 555 Мбайт
Продолжительность                : 44 м.
Общий поток                      : 1729 Кбит/сек
Программа кодирования            : VirtualDubMod 1.5.10.2 (build 2540/release)
Библиотека кодирования           : VirtualDubMod build 2540/release

Видео
Идентификатор                    : 0
Формат                           : MPEG-4 Visual
Профиль формата                  : Advanced Simple@L5
Параметр BVOP формата            : Да
Параметр QPel формата            : Нет
Параметр GMC формата             : Без точки перехода
Параметр матрицы формата         : Default (MPEG)
Режим смешивания                 : Сжатый битовый поток
Идентификатор кодека             : XVID
Идентификатор кодека/Подсказка   : XviD
Продолжительность                : 44 м.
Битрейт                          : 1591 Кбит/сек
Ширина                           : 704 пикс.
Высота                           : 416 пикс.
Соотношение сторон               : 1,692
Частота кадров                   : 25,000 кадр/сек
Цветовое пространство            : YUV
Подвыборка цветности             : 4:2:0
Битовая глубина                  : 8 бит
Тип развёртки                    : Прогрессивная
Метод сжатия                     : С потерями
Бит/(Пиксели*Кадры)              : 0.217
Размер потока                    : 511 Мбайт (92%)
Библиотека кодирования           : XviD 1.0.3 (UTC 2004-12-20)

Аудио
Идентификатор                    : 1
Формат                           : MPEG Audio
Версия формата                   : Version 1
Профиль формата                  : Layer 3
Режим                            : Joint stereo
Расширение режима                : MS Stereo
Идентификатор кодека             : 55
Идентификатор кодека/Подсказка   : MP3
Продолжительность                : 44 м.
Вид битрейта                     : Постоянный
Битрейт                          : 128 Кбит/сек
Канал(ы)                         : 2 канала(ов)
Частота                          : 48,0 КГц
Метод сжатия                     : С потерями
Размер потока                    : 41,1 Мбайт (7%)
Выравнивание                     : Соединение по промежуткам
Продолжительность промежутка     : 40  мс. (1,00 видеокадр)
Время предзагрузки промежутка    : 504 ms

Общее
Полное имя                       : G:\_СЕРИАЛЫ\Высший пилотаж\Vysshij.pilotazh.(05.seriya.iz.16).2009.XviD.DVDRip.avi
Формат                           : AVI
Формат/Информация                : Audio Video Interleave
Размер файла                     : 555 Мбайт
Продолжительность                : 45 м.
Общий поток                      : 1717 Кбит/сек
Программа кодирования            : VirtualDubMod 1.5.10.2 (build 2540/release)
Библиотека кодирования           : VirtualDubMod build 2540/release

Видео
Идентификатор                    : 0
Формат                           : MPEG-4 Visual
Профиль формата                  : Advanced Simple@L5
Параметр BVOP формата            : Да
Параметр QPel формата            : Нет
Параметр GMC формата             : Без точки перехода
Параметр матрицы формата         : Default (MPEG)
Режим смешивания                 : Сжатый битовый поток
Идентификатор кодека             : XVID
Идентификатор кодека/Подсказка   : XviD
Продолжительность                : 45 м.
Битрейт                          : 1579 Кбит/сек
Ширина                           : 704 пикс.
Высота                           : 416 пикс.
Соотношение сторон               : 1,692
Частота кадров                   : 25,000 кадр/сек
Цветовое пространство            : YUV
Подвыборка цветности             : 4:2:0
Битовая глубина                  : 8 бит
Тип развёртки                    : Прогрессивная
Метод сжатия                     : С потерями
Бит/(Пиксели*Кадры)              : 0.216
Размер потока                    : 510 Мбайт (92%)
Библиотека кодирования           : XviD 1.0.3 (UTC 2004-12-20)

Аудио
Идентификатор                    : 1
Формат                           : MPEG Audio
Версия формата                   : Version 1
Профиль формата                  : Layer 3
Режим                            : Joint stereo
Расширение режима                : MS Stereo
Идентификатор кодека             : 55
Идентификатор кодека/Подсказка   : MP3
Продолжительность                : 45 м.
Вид битрейта                     : Постоянный
Битрейт                          : 128 Кбит/сек
Канал(ы)                         : 2 канала(ов)
Частота                          : 48,0 КГц
Метод сжатия                     : С потерями
Размер потока                    : 41,4 Мбайт (7%)
Выравнивание                     : Соединение по промежуткам
Продолжительность промежутка     : 40  мс. (1,00 видеокадр)
Время предзагрузки промежутка    : 504 ms

Общее
Полное имя                       : G:\_СЕРИАЛЫ\Высший пилотаж\Vysshij.pilotazh.(06.seriya.iz.16).2009.XviD.DVDRip.avi
Формат                           : AVI
Формат/Информация                : Audio Video Interleave
Размер файла                     : 555 Мбайт
Продолжительность                : 45 м.
Общий поток                      : 1721 Кбит/сек
Программа кодирования            : VirtualDubMod 1.5.10.2 (build 2540/release)
Библиотека кодирования           : VirtualDubMod build 2540/release

Видео
Идентификатор                    : 0
Формат                           : MPEG-4 Visual
Профиль формата                  : Advanced Simple@L5
Параметр BVOP формата            : Да
Параметр QPel формата            : Нет
Параметр GMC формата             : Без точки перехода
Параметр матрицы формата         : Default (MPEG)
Режим смешивания                 : Сжатый битовый поток
Идентификатор кодека             : XVID
Идентификатор кодека/Подсказка   : XviD
Продолжительность                : 45 м.
Битрейт                          : 1583 Кбит/сек
Ширина                           : 704 пикс.
Высота                           : 416 пикс.
Соотношение сторон               : 1,692
Частота кадров                   : 25,000 кадр/сек
Цветовое пространство            : YUV
Подвыборка цветности             : 4:2:0
Битовая глубина                  : 8 бит
Тип развёртки                    : Прогрессивная
Метод сжатия                     : С потерями
Бит/(Пиксели*Кадры)              : 0.216
Размер потока                    : 511 Мбайт (92%)
Библиотека кодирования           : XviD 1.0.3 (UTC 2004-12-20)

Аудио
Идентификатор                    : 1
Формат                           : MPEG Audio
Версия формата                   : Version 1
Профиль формата                  : Layer 3
Режим                            : Joint stereo
Расширение режима                : MS Stereo
Идентификатор кодека             : 55
Идентификатор кодека/Подсказка   : MP3
Продолжительность                : 45 м.
Вид битрейта                     : Постоянный
Битрейт                          : 128 Кбит/сек
Канал(ы)                         : 2 канала(ов)
Частота                          : 48,0 КГц
Метод сжатия                     : С потерями
Размер потока                    : 41,3 Мбайт (7%)
Выравнивание                     : Соединение по промежуткам
Продолжительность промежутка     : 40  мс. (1,00 видеокадр)
Время предзагрузки промежутка    : 504 ms

Общее
Полное имя                       : G:\_СЕРИАЛЫ\Высший пилотаж\Vysshij.pilotazh.(07.seriya.iz.16).2009.XviD.DVDRip.avi
Формат                           : AVI
Формат/Информация                : Audio Video Interleave
Размер файла                     : 555 Мбайт
Продолжительность                : 45 м.
Общий поток                      : 1711 Кбит/сек
Программа кодирования            : VirtualDubMod 1.5.10.2 (build 2540/release)
Библиотека кодирования           : VirtualDubMod build 2540/release

Видео
Идентификатор                    : 0
Формат                           : MPEG-4 Visual
Профиль формата                  : Advanced Simple@L5
Параметр BVOP формата            : Да
Параметр QPel формата            : Нет
Параметр GMC формата             : Без точки перехода
Параметр матрицы формата         : Default (MPEG)
Режим смешивания                 : Сжатый битовый поток
Идентификатор кодека             : XVID
Идентификатор кодека/Подсказка   : XviD
Продолжительность                : 45 м.
Битрейт                          : 1574 Кбит/сек
Ширина                           : 704 пикс.
Высота                           : 416 пикс.
Соотношение сторон               : 1,692
Частота кадров                   : 25,000 кадр/сек
Цветовое пространство            : YUV
Подвыборка цветности             : 4:2:0
Битовая глубина                  : 8 бит
Тип развёртки                    : Прогрессивная
Метод сжатия                     : С потерями
Бит/(Пиксели*Кадры)              : 0.215
Размер потока                    : 510 Мбайт (92%)
Библиотека кодирования           : XviD 1.0.3 (UTC 2004-12-20)

Аудио
Идентификатор                    : 1
Формат                           : MPEG Audio
Версия формата                   : Version 1
Профиль формата                  : Layer 3
Режим                            : Joint stereo
Расширение режима                : MS Stereo
Идентификатор кодека             : 55
Идентификатор кодека/Подсказка   : MP3
Продолжительность                : 45 м.
Вид битрейта                     : Постоянный
Битрейт                          : 128 Кбит/сек
Канал(ы)                         : 2 канала(ов)
Частота                          : 48,0 КГц
Метод сжатия                     : С потерями
Размер потока                    : 41,5 Мбайт (7%)
Выравнивание                     : Соединение по промежуткам
Продолжительность промежутка     : 40  мс. (1,00 видеокадр)
Время предзагрузки промежутка    : 504 ms

Общее
Полное имя                       : G:\_СЕРИАЛЫ\Высший пилотаж\Vysshij.pilotazh.(08.seriya.iz.16).2009.XviD.DVDRip.avi
Формат                           : AVI
Формат/Информация                : Audio Video Interleave
Размер файла                     : 555 Мбайт
Продолжительность                : 44 м.
Общий поток                      : 1725 Кбит/сек
Программа кодирования            : VirtualDubMod 1.5.10.2 (build 2540/release)
Библиотека кодирования           : VirtualDubMod build 2540/release

Видео
Идентификатор                    : 0
Формат                           : MPEG-4 Visual
Профиль формата                  : Advanced Simple@L5
Параметр BVOP формата            : Да
Параметр QPel формата            : Нет
Параметр GMC формата             : Без точки перехода
Параметр матрицы формата         : Default (MPEG)
Режим смешивания                 : Сжатый битовый поток
Идентификатор кодека             : XVID
Идентификатор кодека/Подсказка   : XviD
Продолжительность                : 44 м.
Битрейт                          : 1587 Кбит/сек
Ширина                           : 704 пикс.
Высота                           : 416 пикс.
Соотношение сторон               : 1,692
Частота кадров                   : 25,000 кадр/сек
Цветовое пространство            : YUV
Подвыборка цветности             : 4:2:0
Битовая глубина                  : 8 бит
Тип развёртки                    : Прогрессивная
Метод сжатия                     : С потерями
Бит/(Пиксели*Кадры)              : 0.217
Размер потока                    : 511 Мбайт (92%)
Библиотека кодирования           : XviD 1.0.3 (UTC 2004-12-20)

Аудио
Идентификатор                    : 1
Формат                           : MPEG Audio
Версия формата                   : Version 1
Профиль формата                  : Layer 3
Режим                            : Joint stereo
Расширение режима                : MS Stereo
Идентификатор кодека             : 55
Идентификатор кодека/Подсказка   : MP3
Продолжительность                : 44 м.
Вид битрейта                     : Постоянный
Битрейт                          : 128 Кбит/сек
Канал(ы)                         : 2 канала(ов)
Частота                          : 48,0 КГц
Метод сжатия                     : С потерями
Размер потока                    : 41,2 Мбайт (7%)
Выравнивание                     : Соединение по промежуткам
Продолжительность промежутка     : 40  мс. (1,00 видеокадр)
Время предзагрузки промежутка    : 504 ms

Общее
Полное имя                       : G:\_СЕРИАЛЫ\Высший пилотаж\Vysshij.pilotazh.(09.seriya.iz.16).2009.XviD.DVDRip.avi
Формат                           : AVI
Формат/Информация                : Audio Video Interleave
Размер файла                     : 555 Мбайт
Продолжительность                : 45 м.
Общий поток                      : 1722 Кбит/сек
Программа кодирования            : VirtualDubMod 1.5.10.2 (build 2540/release)
Библиотека кодирования           : VirtualDubMod build 2540/release

Видео
Идентификатор                    : 0
Формат                           : MPEG-4 Visual
Профиль формата                  : Advanced Simple@L5
Параметр BVOP формата            : Да
Параметр QPel формата            : Нет
Параметр GMC формата             : Без точки перехода
Параметр матрицы формата         : Default (MPEG)
Режим смешивания                 : Сжатый битовый поток
Идентификатор кодека             : XVID
Идентификатор кодека/Подсказка   : XviD
Продолжительность                : 45 м.
Битрейт                          : 1584 Кбит/сек
Ширина                           : 704 пикс.
Высота                           : 416 пикс.
Соотношение сторон               : 1,692
Частота кадров                   : 25,000 кадр/сек
Цветовое пространство            : YUV
Подвыборка цветности             : 4:2:0
Битовая глубина                  : 8 бит
Тип развёртки                    : Прогрессивная
Метод сжатия                     : С потерями
Бит/(Пиксели*Кадры)              : 0.216
Размер потока                    : 511 Мбайт (92%)
Библиотека кодирования           : XviD 1.0.3 (UTC 2004-12-20)

Аудио
Идентификатор                    : 1
Формат                           : MPEG Audio
Версия формата                   : Version 1
Профиль формата                  : Layer 3
Режим                            : Joint stereo
Расширение режима                : MS Stereo
Идентификатор кодека             : 55
Идентификатор кодека/Подсказка   : MP3
Продолжительность                : 45 м.
Вид битрейта                     : Постоянный
Битрейт                          : 128 Кбит/сек
Канал(ы)                         : 2 канала(ов)
Частота                          : 48,0 КГц
Метод сжатия                     : С потерями
Размер потока                    : 41,3 Мбайт (7%)
Выравнивание                     : Соединение по промежуткам
Продолжительность промежутка     : 40  мс. (1,00 видеокадр)
Время предзагрузки промежутка    : 504 ms

Общее
Полное имя                       : G:\_СЕРИАЛЫ\Высший пилотаж\Vysshij.pilotazh.(10.seriya.iz.16).2009.XviD.DVDRip.avi
Формат                           : AVI
Формат/Информация                : Audio Video Interleave
Размер файла                     : 555 Мбайт
Продолжительность                : 45 м.
Общий поток                      : 1714 Кбит/сек
Программа кодирования            : VirtualDubMod 1.5.10.2 (build 2540/release)
Библиотека кодирования           : VirtualDubMod build 2540/release

Видео
Идентификатор                    : 0
Формат                           : MPEG-4 Visual
Профиль формата                  : Advanced Simple@L5
Параметр BVOP формата            : Да
Параметр QPel формата            : Нет
Параметр GMC формата             : Без точки перехода
Параметр матрицы формата         : Default (MPEG)
Режим смешивания                 : Сжатый битовый поток
Идентификатор кодека             : XVID
Идентификатор кодека/Подсказка   : XviD
Продолжительность                : 45 м.
Битрейт                          : 1576 Кбит/сек
Ширина                           : 704 пикс.
Высота                           : 416 пикс.
Соотношение сторон               : 1,692
Частота кадров                   : 25,000 кадр/сек
Цветовое пространство            : YUV
Подвыборка цветности             : 4:2:0
Битовая глубина                  : 8 бит
Тип развёртки                    : Прогрессивная
Метод сжатия                     : С потерями
Бит/(Пиксели*Кадры)              : 0.215
Размер потока                    : 510 Мбайт (92%)
Библиотека кодирования           : XviD 1.0.3 (UTC 2004-12-20)

Аудио
Идентификатор                    : 1
Формат                           : MPEG Audio
Версия формата                   : Version 1
Профиль формата                  : Layer 3
Режим                            : Joint stereo
Расширение режима                : MS Stereo
Идентификатор кодека             : 55
Идентификатор кодека/Подсказка   : MP3
Продолжительность                : 45 м.
Вид битрейта                     : Постоянный
Битрейт                          : 128 Кбит/сек
Канал(ы)                         : 2 канала(ов)
Частота                          : 48,0 КГц
Метод сжатия                     : С потерями
Размер потока                    : 41,4 Мбайт (7%)
Выравнивание                     : Соединение по промежуткам
Продолжительность промежутка     : 40  мс. (1,00 видеокадр)
Время предзагрузки промежутка    : 504 ms

Общее
Полное имя                       : G:\_СЕРИАЛЫ\Высший пилотаж\Vysshij.pilotazh.(11.seriya.iz.16).2009.XviD.DVDRip.avi
Формат                           : AVI
Формат/Информация                : Audio Video Interleave
Размер файла                     : 555 Мбайт
Продолжительность                : 45 м.
Общий поток                      : 1713 Кбит/сек
Программа кодирования            : VirtualDubMod 1.5.10.2 (build 2540/release)
Библиотека кодирования           : VirtualDubMod build 2540/release

Видео
Идентификатор                    : 0
Формат                           : MPEG-4 Visual
Профиль формата                  : Advanced Simple@L5
Параметр BVOP формата            : Да
Параметр QPel формата            : Нет
Параметр GMC формата             : Без точки перехода
Параметр матрицы формата         : Default (MPEG)
Режим смешивания                 : Сжатый битовый поток
Идентификатор кодека             : XVID
Идентификатор кодека/Подсказка   : XviD
Продолжительность                : 45 м.
Битрейт                          : 1576 Кбит/сек
Ширина                           : 704 пикс.
Высота                           : 416 пикс.
Соотношение сторон               : 1,692
Частота кадров                   : 25,000 кадр/сек
Цветовое пространство            : YUV
Подвыборка цветности             : 4:2:0
Битовая глубина                  : 8 бит
Тип развёртки                    : Прогрессивная
Метод сжатия                     : С потерями
Бит/(Пиксели*Кадры)              : 0.215
Размер потока                    : 510 Мбайт (92%)
Библиотека кодирования           : XviD 1.0.3 (UTC 2004-12-20)

Аудио
Идентификатор                    : 1
Формат                           : MPEG Audio
Версия формата                   : Version 1
Профиль формата                  : Layer 3
Режим                            : Joint stereo
Расширение режима                : MS Stereo
Идентификатор кодека             : 55
Идентификатор кодека/Подсказка   : MP3
Продолжительность                : 45 м.
Вид битрейта                     : Постоянный
Битрейт                          : 128 Кбит/сек
Канал(ы)                         : 2 канала(ов)
Частота                          : 48,0 КГц
Метод сжатия                     : С потерями
Размер потока                    : 41,5 Мбайт (7%)
Выравнивание                     : Соединение по промежуткам
Продолжительность промежутка     : 40  мс. (1,00 видеокадр)
Время предзагрузки промежутка    : 504 ms

Общее
Полное имя                       : G:\_СЕРИАЛЫ\Высший пилотаж\Vysshij.pilotazh.(12.seriya.iz.16).2009.XviD.DVDRip.avi
Формат                           : AVI
Формат/Информация                : Audio Video Interleave
Размер файла                     : 555 Мбайт
Продолжительность                : 44 м.
Общий поток                      : 1735 Кбит/сек
Программа кодирования            : VirtualDubMod 1.5.10.2 (build 2540/release)
Библиотека кодирования           : VirtualDubMod build 2540/release

Видео
Идентификатор                    : 0
Формат                           : MPEG-4 Visual
Профиль формата                  : Advanced Simple@L5
Параметр BVOP формата            : Да
Параметр QPel формата            : Нет
Параметр GMC формата             : Без точки перехода
Параметр матрицы формата         : Default (MPEG)
Режим смешивания                 : Сжатый битовый поток
Идентификатор кодека             : XVID
Идентификатор кодека/Подсказка   : XviD
Продолжительность                : 44 м.
Битрейт                          : 1597 Кбит/сек
Ширина                           : 704 пикс.
Высота                           : 416 пикс.
Соотношение сторон               : 1,692
Частота кадров                   : 25,000 кадр/сек
Цветовое пространство            : YUV
Подвыборка цветности             : 4:2:0
Битовая глубина                  : 8 бит
Тип развёртки                    : Прогрессивная
Метод сжатия                     : С потерями
Бит/(Пиксели*Кадры)              : 0.218
Размер потока                    : 511 Мбайт (92%)
Библиотека кодирования           : XviD 1.0.3 (UTC 2004-12-20)

Аудио
Идентификатор                    : 1
Формат                           : MPEG Audio
Версия формата                   : Version 1
Профиль формата                  : Layer 3
Режим                            : Joint stereo
Расширение режима                : MS Stereo
Идентификатор кодека             : 55
Идентификатор кодека/Подсказка   : MP3
Продолжительность                : 44 м.
Вид битрейта                     : Постоянный
Битрейт                          : 128 Кбит/сек
Канал(ы)                         : 2 канала(ов)
Частота                          : 48,0 КГц
Метод сжатия                     : С потерями
Размер потока                    : 40,9 Мбайт (7%)
Выравнивание                     : Соединение по промежуткам
Продолжительность промежутка     : 40  мс. (1,00 видеокадр)
Время предзагрузки промежутка    : 504 ms

Общее
Полное имя                       : G:\_СЕРИАЛЫ\Высший пилотаж\Vysshij.pilotazh.(13.seriya.iz.16).2009.XviD.DVDRip.avi
Формат                           : AVI
Формат/Информация                : Audio Video Interleave
Размер файла                     : 555 Мбайт
Продолжительность                : 45 м.
Общий поток                      : 1723 Кбит/сек
Программа кодирования            : VirtualDubMod 1.5.10.2 (build 2540/release)
Библиотека кодирования           : VirtualDubMod build 2540/release

Видео
Идентификатор                    : 0
Формат                           : MPEG-4 Visual
Профиль формата                  : Advanced Simple@L5
Параметр BVOP формата            : Да
Параметр QPel формата            : Нет
Параметр GMC формата             : Без точки перехода
Параметр матрицы формата         : Default (MPEG)
Режим смешивания                 : Сжатый битовый поток
Идентификатор кодека             : XVID
Идентификатор кодека/Подсказка   : XviD
Продолжительность                : 45 м.
Битрейт                          : 1585 Кбит/сек
Ширина                           : 704 пикс.
Высота                           : 416 пикс.
Соотношение сторон               : 1,692
Частота кадров                   : 25,000 кадр/сек
Цветовое пространство            : YUV
Подвыборка цветности             : 4:2:0
Битовая глубина                  : 8 бит
Тип развёртки                    : Прогрессивная
Метод сжатия                     : С потерями
Бит/(Пиксели*Кадры)              : 0.217
Размер потока                    : 511 Мбайт (92%)
Библиотека кодирования           : XviD 1.0.3 (UTC 2004-12-20)

Аудио
Идентификатор                    : 1
Формат                           : MPEG Audio
Версия формата                   : Version 1
Профиль формата                  : Layer 3
Режим                            : Joint stereo
Расширение режима                : MS Stereo
Идентификатор кодека             : 55
Идентификатор кодека/Подсказка   : MP3
Продолжительность                : 45 м.
Вид битрейта                     : Постоянный
Битрейт                          : 128 Кбит/сек
Канал(ы)                         : 2 канала(ов)
Частота                          : 48,0 КГц
Метод сжатия                     : С потерями
Размер потока                    : 41,2 Мбайт (7%)
Выравнивание                     : Соединение по промежуткам
Продолжительность промежутка     : 40  мс. (1,00 видеокадр)
Время предзагрузки промежутка    : 504 ms

Общее
Полное имя                       : G:\_СЕРИАЛЫ\Высший пилотаж\Vysshij.pilotazh.(14.seriya.iz.16).2009.XviD.DVDRip.avi
Формат                           : AVI
Формат/Информация                : Audio Video Interleave
Размер файла                     : 555 Мбайт
Продолжительность                : 44 м.
Общий поток                      : 1727 Кбит/сек
Программа кодирования            : VirtualDubMod 1.5.10.2 (build 2540/release)
Библиотека кодирования           : VirtualDubMod build 2540/release

Видео
Идентификатор                    : 0
Формат                           : MPEG-4 Visual
Профиль формата                  : Advanced Simple@L5
Параметр BVOP формата            : Да
Параметр QPel формата            : Нет
Параметр GMC формата             : Без точки перехода
Параметр матрицы формата         : Default (MPEG)
Режим смешивания                 : Сжатый битовый поток
Идентификатор кодека             : XVID
Идентификатор кодека/Подсказка   : XviD
Продолжительность                : 44 м.
Битрейт                          : 1589 Кбит/сек
Ширина                           : 704 пикс.
Высота                           : 416 пикс.
Соотношение сторон               : 1,692
Частота кадров                   : 25,000 кадр/сек
Цветовое пространство            : YUV
Подвыборка цветности             : 4:2:0
Битовая глубина                  : 8 бит
Тип развёртки                    : Прогрессивная
Метод сжатия                     : С потерями
Бит/(Пиксели*Кадры)              : 0.217
Размер потока                    : 511 Мбайт (92%)
Библиотека кодирования           : XviD 1.0.3 (UTC 2004-12-20)

Аудио
Идентификатор                    : 1
Формат                           : MPEG Audio
Версия формата                   : Version 1
Профиль формата                  : Layer 3
Режим                            : Joint stereo
Расширение режима                : MS Stereo
Идентификатор кодека             : 55
Идентификатор кодека/Подсказка   : MP3
Продолжительность                : 44 м.
Вид битрейта                     : Постоянный
Битрейт                          : 128 Кбит/сек
Канал(ы)                         : 2 канала(ов)
Частота                          : 48,0 КГц
Метод сжатия                     : С потерями
Размер потока                    : 41,1 Мбайт (7%)
Выравнивание                     : Соединение по промежуткам
Продолжительность промежутка     : 40  мс. (1,00 видеокадр)
Время предзагрузки промежутка    : 504 ms

Общее
Полное имя                       : G:\_СЕРИАЛЫ\Высший пилотаж\Vysshij.pilotazh.(15.seriya.iz.16).2009.XviD.DVDRip.avi
Формат                           : AVI
Формат/Информация                : Audio Video Interleave
Размер файла                     : 555 Мбайт
Продолжительность                : 44 м.
Общий поток                      : 1726 Кбит/сек
Программа кодирования            : VirtualDubMod 1.5.10.2 (build 2540/release)
Библиотека кодирования           : VirtualDubMod build 2540/release

Видео
Идентификатор                    : 0
Формат                           : MPEG-4 Visual
Профиль формата                  : Advanced Simple@L5
Параметр BVOP формата            : Да
Параметр QPel формата            : Нет
Параметр GMC формата             : Без точки перехода
Параметр матрицы формата         : Default (MPEG)
Режим смешивания                 : Сжатый битовый поток
Идентификатор кодека             : XVID
Идентификатор кодека/Подсказка   : XviD
Продолжительность                : 44 м.
Битрейт                          : 1588 Кбит/сек
Ширина                           : 704 пикс.
Высота                           : 416 пикс.
Соотношение сторон               : 1,692
Частота кадров                   : 25,000 кадр/сек
Цветовое пространство            : YUV
Подвыборка цветности             : 4:2:0
Битовая глубина                  : 8 бит
Тип развёртки                    : Прогрессивная
Метод сжатия                     : С потерями
Бит/(Пиксели*Кадры)              : 0.217
Размер потока                    : 511 Мбайт (92%)
Библиотека кодирования           : XviD 1.0.3 (UTC 2004-12-20)

Аудио
Идентификатор                    : 1
Формат                           : MPEG Audio
Версия формата                   : Version 1
Профиль формата                  : Layer 3
Режим                            : Joint stereo
Идентификатор кодека             : 55
Идентификатор кодека/Подсказка   : MP3
Продолжительность                : 44 м.
Вид битрейта                     : Постоянный
Битрейт                          : 128 Кбит/сек
Канал(ы)                         : 2 канала(ов)
Частота                          : 48,0 КГц
Метод сжатия                     : С потерями
Размер потока                    : 41,2 Мбайт (7%)
Выравнивание                     : Соединение по промежуткам
Продолжительность промежутка     : 40  мс. (1,00 видеокадр)
Время предзагрузки промежутка    : 504 ms

Общее
Полное имя                       : G:\_СЕРИАЛЫ\Высший пилотаж\Vysshij.pilotazh.(16.seriya.iz.16).2009.XviD.DVDRip.avi
Формат                           : AVI
Формат/Информация                : Audio Video Interleave
Размер файла                     : 555 Мбайт
Продолжительность                : 45 м.
Общий поток                      : 1722 Кбит/сек
Программа кодирования            : VirtualDubMod 1.5.10.2 (build 2540/release)
Библиотека кодирования           : VirtualDubMod build 2540/release

Видео
Идентификатор                    : 0
Формат                           : MPEG-4 Visual
Профиль формата                  : Advanced Simple@L5
Параметр BVOP формата            : Да
Параметр QPel формата            : Нет
Параметр GMC формата             : Без точки перехода
Параметр матрицы формата         : Default (MPEG)
Режим смешивания                 : Сжатый битовый поток
Идентификатор кодека             : XVID
Идентификатор кодека/Подсказка   : XviD
Продолжительность                : 45 м.
Битрейт                          : 1584 Кбит/сек
Ширина                           : 704 пикс.
Высота                           : 416 пикс.
Соотношение сторон               : 1,692
Частота кадров                   : 25,000 кадр/сек
Цветовое пространство            : YUV
Подвыборка цветности             : 4:2:0
Битовая глубина                  : 8 бит
Тип развёртки                    : Прогрессивная
Метод сжатия                     : С потерями
Бит/(Пиксели*Кадры)              : 0.216
Размер потока                    : 511 Мбайт (92%)
Библиотека кодирования           : XviD 1.0.3 (UTC 2004-12-20)

Аудио
Идентификатор                    : 1
Формат                           : MPEG Audio
Версия формата                   : Version 1
Профиль формата                  : Layer 3
Режим                            : Joint stereo
Расширение режима                : MS Stereo
Идентификатор кодека             : 55
Идентификатор кодека/Подсказка   : MP3
Продолжительность                : 45 м.
Вид битрейта                     : Постоянный
Битрейт                          : 128 Кбит/сек
Канал(ы)                         : 2 канала(ов)
Частота                          : 48,0 КГц
Метод сжатия                     : С потерями
Размер потока                    : 41,3 Мбайт (7%)
Выравнивание                     : Соединение по промежуткам
Продолжительность промежутка     : 40  мс. (1,00 видеокадр)
Время предзагрузки промежутка    : 504 ms





© Оформление by Mladenecpb.wtf



Скачать Высший пилотаж через торрент http://piratbit.in.ua/ebe2dc50d753d17291fa83be31730fe1.jpg Скачать фильм Высший пилотаж через торрент бесплантно в хорошем качестве Описание: Речь в сериале идет об основных ценностных ориентирах в жизни современного человека: о дружбе и любви, о сплоченности и ... 9 10 1
Info! Золотая раздача, скачанное не засчитывается.
Торрент: Зарегистрирован [2011-04-20 17:19] · скачан: 2 раз
Статус: √ проверено
Размер: 8.67 GB
Как cкачать? Как скачать Высший пилотаж через торрент | qTorrent

% Раздел Тема Автор DL S | L
Фильмы [HD 720p, 1080p] (Хороший звук DUB, MVO) [ 8.39 GB ] Высший пилотаж / Sky High [2003 BDRip 1080p от еnvy / NNNB] | DUB еnvy Скачать
8 | 0
Фильмы 2001-2005 [ 1.45 GB ] Высший пилотаж / Sky high [2005 BDRip ] marinalip Скачать
1 | 0
Веб-дизайн и программирование [ 72 MB ] Мэтт Клосковски - Высший пилотаж в Photoshop CS2. [2006 PDF] djvoin Скачать
1 | 0
Научно-популярные фильмы [ 959 MB ] Высший пилотаж выращивания каннабиса / Jorge Cervantes - The ultimate grow [2008] [2008 документальный DVDRip] ПиллиКурилли Скачать
1 | 0
Японские фильмы [ 2.04 GB ] Высший пилотаж / SkyHigh Premium Vol.7 [2010 Japanese Dildos/Vibrators Oral Group DVDRip] Ragnarok Скачать
1 | 0
Фильмы 2001-2005 [ 1.46 GB ] Высший пилотаж / Spun [2002 ... DVDRip] vishnyaspez Скачать
1 | 0

28-11-2019 20:33  

Отключить всю рекламу на сайте

    Дорогой пользователь! Огромная просьба, поблагодарите релизера, оцените раздачу и оставьте свои комментарий, если Вы скачали Высший пилотаж через торрент бесплатно! Внесите свою лепту в развитие PiratBit!
    Комментировать посты могут только пользователи прошедшие не сложную регистрацию
    Показать сообщения:    

    Высший пилотаж через торрент
    Скачать бесплатно Высший пилотаж
    Высший пилотаж скачать торрент
    Высший пилотаж смотреть онлайн
    Cкачать фильм Высший пилотаж бесплатно
    Высший пилотаж скачать торрент в хорошем качестве
    Высший пилотаж смотреть онлайн бесплатно в хорошем качестве


    Вы не можете начинать темы
    Вы не можете отвечать на сообщения
    Вы не можете редактировать свои сообщения
    Вы не можете удалять свои сообщения
    Вы не можете голосовать в опросах
    Вы не можете прикреплять файлы к сообщениям
    Вы можете скачивать файлы