1 сезон

3 сезон

iTunes

1

iTunes

MVO

iTunes

13

1 сезон

RePack

30

Deluxe

pack

Лицензия

ВАЖНО

ИГРА 18+

pack

RePack

MK11

RePack

jed

RePack

fifa19

RePack

RDR2

RePack

NEED FOR SPEED™ PAYBACK

4 сезон

9 сезон

Бесстыжие 9 сезон

Все сериалы

все сериалы на PB.wtf

RePack

FAR CRY 5

Anonymous, доброй ночи, мы катастрофически не успеваем собрать деньги на оплату серверов, помогите нам пожалуйста 5,10,15р., для нас важна любая помощь . В качестве благодарности мы отключим Вам всю рекламу на сайте (укажите свой ник в строку Ваше имя)!

×
  
Magnet ссылка

Астрал / Insidious (Джеймс Ван / James Wan) [2010, США, ужасы, триллер, DVD5] R5 pb.wtf

Астрал через торрент pb.wtf

Размер: 3.81 GB | Добавлен: 10 лет назад | Торрент скачан:210 раз
Скачать  

22-04-2011 07:54 Астрал Скачать торрент  


Астрал / Insidious
«Это не дом населён призраками...»
Страна: США
Студия: Automatik Entertainment, Blumhouse Productions
Жанр: ужасы, триллер
Год выпуска: 2010
Мировая премьера: 31 марта 2011
Российская премьера: 1 апреля 2011, «Top Film Distribution»
Дата выхода DVD: 28 апреля 2011, «New Dream media», «Новый Диск»
Продолжительность: 01:38:11
Перевод: Профессиональный (дублированный) [Лицензия]
Cубтитры: украинские
Режиссер: Джеймс Ван / James Wan
В ролях: Патрик Уилсон, Роуз Бирн, Ти Кигэн Симпкинс, Эндрю Эстор, Лин Шэй, Ли Уоннелл, Энгус Сэмпсон, Барбара Херши, Корбетт Так
Описание: Джош и Ринэй переезжают со своими детьми в новый дом, но не успевают толком распаковать вещи, как начинаются странные события. Необъяснимо перемещаются предметы, в детской звучат странные звуки… Но в настоящий ужас приходят родители, когда их десятилетний сын Далтон впадает в кому. Все усилия врачей в больнице помочь мальчику безуспешны.
Несколько месяцев спустя его возвращают домой, где за несчастным ребенком ухаживают мать и сиделка. Но загадочные явления в доме продолжаются. Отчаявшиеся родители готовы обратиться за помощью к кому угодно и вскоре выясняется, что Далтон в бессознательном состоянии связан с паранормальным миром…

Бонусы: нет

Релиз группы:
Качество: DVD5 R5
Формат: DVD-Video
Видео кодек: MPEG2
Аудио кодек: AC3
Видео: PAL 16:9 (720x576(0.490)) MPEG Video,25,000 кадр/сек, 5077 Кбит/сек
Аудио: Russian (Dolby AC3, 6 ch) 384 Кбит/сек, 48,0 КГц



Title: Мой диск
Size: 3.81 Gb ( 3 990 802 KBytes ) - DVD-5
Enabled regions: 1, 2, 3, 4, 5, 6, 7, 8

VTS_01 :
Play Length: 00:00:08
Video: PAL 4:3 (720x576) VBR

VTS_02 :
Play Length: 00:00:07
Video: PAL 4:3 (720x576) VBR
Audio:
English (Dolby AC3, 2 ch)

VTS_03 :
Play Length: 01:38:11
Video: PAL 16:9 (720x576) VBR, Auto Letterboxed
Audio:
Russian (Dolby AC3, 6 ch)
Subtitles:
Ukrainian

Menu Video:
PAL 16:9 (720x576) VBR
Auto Letterboxed
Menu Audio:
Not specified (Dolby AC3, 2 ch)
Menu Subtitles:
Not specified
Menu Russian Language Unit :
Root Menu
Chapter (PTT) Menu
Audio Menu
Общее
Полное имя : F:\Новинки 2011\Astral.2010.DVD5\VIDEO_TS\VTS_03_1.VOB
Формат : MPEG-PS
Размер файла : 1024 Мбайт
Продолжительность : 25 м.
Общий поток : 5572 Кбит/сек

Видео
Идентификатор : 224 (0xE0)
Формат : MPEG Video
Версия формата : Version 2
Профиль формата : Main@Main
Параметр BVOP формата : Да
Параметр матрицы формата : По умолчанию
Продолжительность : 25 м.
Вид битрейта : Переменный
Битрейт : 5077 Кбит/сек
Номинальный битрейт : 8000 Кбит/сек
Ширина : 720 пикс.
Высота : 576 пикс.
Соотношение сторон : 16:9
Частота кадров : 25,000 кадр/сек
Стандарт вещания : PAL
Цветовое пространство : YUV
Подвыборка цветности : 4:2:0
Битовая глубина : 8 бит
Тип развёртки : Чересстрочная
Порядок развёртки : Верхнее поле первое
Метод сжатия : С потерями
Бит/(Пиксели*Кадры) : 0.490
Размер потока : 933 Мбайт (91%)

Аудио
Идентификатор : 189 (0xBD)-128 (0x80)
Формат : AC-3
Формат/Информация : Audio Coding 3
Расширение режима : CM (complete main)
Режим смешивания : DVD-Video
Продолжительность : 25 м.
Вид битрейта : Постоянный
Битрейт : 384 Кбит/сек
Канал(ы) : 6 канала(ов)
Расположение каналов : Front: L C R, Side: L R, LFE
Частота : 48,0 КГц
Битовая глубина : 16 бит
Метод сжатия : С потерями
Размер потока : 70,6 Мбайт (7%)










pb.wtf



Скачать Астрал через торрент http://i20.fastpic.ru/big/2011/0422/fd/be34e31c72efbfd40df877fa440e17fd.jpg Скачать фильм Астрал через торрент бесплантно в хорошем качестве Описание: Джош и Ринэй переезжают со своими детьми в новый дом, но не успевают толком распаковать вещи, как начинаются странные события. ... 5 10 7
Info! Золотая раздача, скачанное не засчитывается.
Торрент: Зарегистрирован [2011-04-22 07:54] · скачан: 210 раз
Статус: √ проверено
Размер: 3.81 GB
Как cкачать? Как скачать Астрал через торрент | UTorrent

% Раздел Тема Автор DL S | L
Сборники и Сиквелы (48-60 fps) [ 9.91 GB ] Астрал: Трилогия / Insidious: Trilogy [2010-2015 BDRip-AVC 60fps ] от R.G. HD-Films Tiberiumsun69 Скачать
2 | 0
Фильмы (BDRip, HDrip-AVC) (48-60 fps) [ 3.75 GB ] Астрал 3 / Insidious: Chapter 3 [2015 BDRip-AVC / 60fps - ] от R.G. HD-Films Ressident Скачать
1 | 0
Фильмы (DVD фильмы) [ 6.25 GB ] Астрал: Глава 2 / Insidious: Chapter 2 [2013 DVD9] R5 voovaz Скачать
1 | 0
Фильмы 2010 [ 1.57 GB ] Астрал / Insidious [2010 HDRip-AVC] от R.G. Bkpo-Club V@DILA Скачать
1 | 0

28-11-2019 20:33  

Отключить всю рекламу на сайте

    Дорогой пользователь! Огромная просьба, поблагодарите релизера, оцените раздачу и оставьте свои комментарий, если Вы скачали Астрал через торрент бесплатно! Внесите свою лепту в развитие PiratBit!
    Комментировать посты могут только пользователи прошедшие не сложную регистрацию
    Показать сообщения:    

    Астрал через торрент
    Скачать бесплатно Астрал
    Астрал скачать торрент
    Астрал смотреть онлайн
    Cкачать фильм Астрал бесплатно
    Астрал скачать торрент в хорошем качестве
    Астрал смотреть онлайн бесплатно в хорошем качестве


    Вы не можете начинать темы
    Вы не можете отвечать на сообщения
    Вы не можете редактировать свои сообщения
    Вы не можете удалять свои сообщения
    Вы не можете голосовать в опросах
    Вы не можете прикреплять файлы к сообщениям
    Вы можете скачивать файлы