Всегда рабочее зеркало без VPN и Proxy просто перед .vidak.icu напиши любое слово или цифру, Пример http://nttj.vidak.icu

MVO

MVO

1 сезон

1

1 сезон

iTunes

1 сезон

13

1 сезон

Deluxe

pack

Рекомендуем

Repack

30

ВАЖНО

RePack

MK11

RePack

jed

RePack

fifa19

RePack

RDR2

RePack

NEED FOR SPEED™ PAYBACK

Кинопоиск HD

6 сезон

 Острые козырьки 6 сезон

Все сериалы

все сериалы на PB.wtf

RePack

FAR CRY 5
  
Magnet ссылка

Бэтмен будущего: Возвращение Джокера / Batman Beyond: Return of the Joker (Курт Геда) [2000 г., мультфильм, фантастика, боевик, триллер, криминал, HDRip][Оригинальная, нецензурированная версия] DUB pb.wtf

Бэтмен будущего: Возвращение Джокера через торрент pb.wtf

Размер: 744 MB | Добавлен: 11 лет назад | Торрент скачан:158 раз
Смотреть онлайн Бэтмен будущего: Возвращение Джокера | Скачать    Ребята, помогите собрать деньги на оплату серверов!!!

25-04-2011 18:57 Бэтмен будущего: Возвращение Джокера Скачать торрент  



Бэтмен будущего: Возвращение Джокера / Batman Beyond: Return of the Joker
Год выпуска: 2000
Страна: США
Жанр: мультфильм, фантастика, боевик, триллер, криминал
Продолжительность: 74 мин.
Перевод: Профессиональный (полное дублирование) [Лицензия]

Режиссер: Курт Геда
Продюссер: Алан Барнетт, Пол Дини, Глен Мураками
Сценарий: Боб Кэйн, Пол Дини, Глен Мураками
PG-13
-Детям до 13 лет просмотр не желателен
Мировой рейтинг IMDB 7.70 (4 608)

В ролях: Уилл Фридл, Кевин Конрой, Марк Хэмилл, Энджи Хэрмон, Дин Стокуэлл, Тери Гарр, Арлин Соркин, Тара Стронг, Мэтью Валенсиа, Мелисса Джоан Ха
Описание: Первый полнометражный мультфильм из серии БЭТМЭН БУДУЩЕГО! И старому, и молодому Бэтмэнам не до смеха: самый опасный преступник всех времен возвращается из прошлого, чтобы мстить молодому Бэтмэну, Брюсу Уэйну и всему Готэму. Подлый, смертельно опасный, и, похоже, бессмертный Король Преступного мира возвращается, чтобы сеять зло и разрушение. Пытаясь разгадать тайну Джокера, молодой Бэтмэн, Терри МакГиннис, открывает величайший секрет старого Бэтмэна: он узнает, что на самом деле случилось в ночь его последней смертельной схватки с Джокером! Когда Брюс Вэйн практически уничтожен Джокером, Терри клянется отомстить за своего наставника.
Дубляж "Мост-Видео" выходил на театральную версию. На непереведенные места наложены русские субтитры

Format : AVI
Format/Info : Audio Video Interleave
File size : 744 MiB
Duration : 1h 16mn
Overall bit rate : 1 355 Kbps
Writing application : VirtualDubMod 1.5.10.3 | www.virtualdub-fr.org || (build 2550/release)
Writing library : VirtualDubMod build 2550/release

Video
ID : 0
Format : MPEG-4 Visual
Format profile : Advanced [email protected]
Format settings, BVOP : 1
Format settings, QPel : No
Format settings, GMC : No warppoints
Format settings, Matrix : Custom
Codec ID : XVID
Codec ID/Hint : XviD
Duration : 1h 16mn
Bit rate : 1 218 Kbps
Width : 640 pixels
Height : 480 pixels
Display aspect ratio : 4:3
Frame rate : 23.976 fps
Color space : YUV
Chroma subsampling : 4:2:0
Bit depth : 8 bits
Scan type : Progressive
Compression mode : Lossy
Bits/(Pixel*Frame) : 0.165
Stream size : 669 MiB (90%)
Writing library : XviD 63

Audio
ID : 1
Format : MPEG Audio
Format version : Version 1
Format profile : Layer 3
Codec ID : 55
Codec ID/Hint : MP3
Duration : 1h 16mn
Bit rate mode : Constant
Bit rate : 128 Kbps
Channel(s) : 2 channels
Sampling rate : 48.0 KHz
Compression mode : Lossy
Stream size : 70.3 MiB (9%)
Alignment : Aligned on interleaves
Interleave, duration : 42 ms (1.00 video frame)
Interleave, preload duration : 504 ms
Writing library : LAME3.98r
Encoding settings : -m s -V 4 -q 2 -lowpass 17 -b 128

Качество: HDRip
Формат: AVI
Видео кодек: XviD
Аудио кодек: MP3
Видео: 640x480 (1.33:1), 23.976 fps, XviD build 63, 1217 kbps avg, 0.17 bit/pixel
Аудио: MPEG Audio Layer 3 48000Hz stereo 128kbps
Субтитры: Русские (вшитые, на непереведенные места)
скриншот  скриншот  скриншот  скриншот  

pb.wtf



Скачать Бэтмен будущего: Возвращение Джокера через торрент http://i20.fastpic.ru/big/2011/0423/7c/594efdf4195a8af92be6bfba5548cd7c.png Скачать, смотреть онлайн Бэтмен будущего: Возвращение Джокера бесплантно в хорошем качестве Описание: Первый полнометражный мультфильм из серии БЭТМЭН БУДУЩЕГО! И старому, и молодому Бэтмэнам не до смеха: самый опасный преступник ... 10 10 2
Info! Золотая раздача, скачанное не засчитывается.
Торрент: Зарегистрирован [2011-04-25 18:57] · скачан: 158 раз
Статус: √ проверено
Размер: 744 MB
Как cкачать? Как скачать Бэтмен будущего: Возвращение Джокера через торрент | UTorrent

28-11-2019 20:33  

Отключить вcю реклaмy на сайте

29-04-2011 23:31 Бэтмен будущего: Возвращение Джокера Скачать торрент  

ребенок будет рад))pb.wtf



    Дорогой пользователь! Огромная просьба, поблагодарите релизера, оцените раздачу и оставьте свои комментарий, если Вы скачали Бэтмен будущего: Возвращение Джокера через торрент бесплатно!
    Комментировать посты могут только пользователи прошедшие не сложную регистрацию
    Показать сообщения:    

    Бэтмен будущего: Возвращение Джокера через торрент
    Скачать бесплатно Бэтмен будущего: Возвращение Джокера
    Бэтмен будущего: Возвращение Джокера скачать торрент
    Бэтмен будущего: Возвращение Джокера смотреть онлайн
    Cкачать фильм Бэтмен будущего: Возвращение Джокера бесплатно
    Бэтмен будущего: Возвращение Джокера скачать торрент в хорошем качестве
    Бэтмен будущего: Возвращение Джокера смотреть онлайн бесплатно в хорошем качестве


    Вы не можете начинать темы
    Вы не можете отвечать на сообщения
    Вы не можете редактировать свои сообщения
    Вы не можете удалять свои сообщения
    Вы не можете голосовать в опросах
    Вы не можете прикреплять файлы к сообщениям
    Вы можете скачивать файлы