1 сезон

3 сезон

iTunes

1

Line

MVO

iTunes

13

1 сезон

RePack

30

Deluxe

pack

Лицензия

ВАЖНО

ИГРА 18+

pack

RePack

MK11

RePack

jed

RePack

fifa19

RePack

RDR2

RePack

NEED FOR SPEED™ PAYBACK

4 сезон

9 сезон

Бесстыжие 9 сезон

Все сериалы

все сериалы на PB.wtf

RePack

FAR CRY 5

Anonymous, доброе утро, мы катастрофически не успеваем собрать деньги на оплату серверов, помогите нам пожалуйста 5,10,15р., для нас важна любая помощь . В качестве благодарности мы отключим Вам всю рекламу на сайте (укажите свой ник в строку Ваше имя)!

×
  
Magnet ссылка

Тайный знак / An Invisible Sign (Мэрлин Агрело / Marilyn Agrelo) [2010, США, драма, DVD5] R5 pb.wtf

Тайный знак через торрент pb.wtf

Размер: 4.2 GB | Добавлен: 10 лет назад | Торрент скачан:12 раз
Скачать  

27-04-2011 11:28 Тайный знак Скачать торрент  


Тайный знак / An Invisible Sign
«Как вычислить счастье?»
Страна: США
Студия: iDeal Partners Film Fund, J2 Pictures, Silverwood Films
Жанр: драма
Год выпуска: 2010
Мировая премьера: 7 октября 2010
Российская премьера: 7 апреля 2011, «Top Film Distribution»
Дата выхода DVD: 28 апреля 2011, «New Dream media», «Новый Диск»
Продолжительность: 01:32:00
Перевод: Профессиональный (многоголосый закадровый) [Лицензия]
Cубтитры: украинские
Режиссер: Мэрлин Агрело / Marilyn Agrelo
В ролях: Джессика Альба, Дж.К. Симмонс, Бэйли Мэдисон, Крис Мессина, Соня Брага, Блайт Оффарт, Джон Ши, Эшли Эткинсон, Софи Нювейде, Эмиральд Янг
Описание: Мона Грэй — двадцатилетняя одинокая девушка, которая в детстве нашла утешение в изучении математики после того, как ее отец тяжело заболел. Став взрослой, Мона начинает преподавать этот предмет в школе и понимает, что должна помочь своим ученикам решить их собственные проблемы.
Бонусы: нет

Релиз группы:
Качество: DVD5 R5
Формат: DVD-Video
Видео кодек: MPEG2
Аудио кодек: AC3
Видео: PAL 16:9 (720x576(0.591)) MPEG Video,25,000 кадр/сек, 6126 Кбит/сек
Аудио: Russian (Dolby AC3, 6 ch) 384 Кбит/сек, 48,0 КГц



Title: O
Size: 4.20 Gb ( 4 399 278 KBytes ) - DVD-5
Enabled regions: 1, 2, 3, 4, 5, 6, 7, 8

VTS_01 :
Play Length: 00:00:08
Video: PAL 4:3 (720x576) VBR

VTS_02 :
Play Length: 00:00:07
Video: PAL 4:3 (720x576) VBR
Audio:
English (Dolby AC3, 2 ch)

VTS_03 :
Play Length: 01:32:00
Video: PAL 16:9 (720x576) VBR, Auto Letterboxed
Audio:
Russian (Dolby AC3, 6 ch)
Subtitles:
Ukrainian

Menu Video:
NTSC 4:3 (720x480) VBR
Auto Pan&Scan, Auto Letterboxed
Menu Russian Language Unit :
Root Menu
Chapter (PTT) Menu
Audio Menu
Общее
Полное имя : H:\Новинки 2011\Tayniy.znak.2010.DVD5\VIDEO_TS\VTS_03_1.VOB
Формат : MPEG-PS
Размер файла : 1024 Мбайт
Продолжительность : 21 м.
Общий поток : 6642 Кбит/сек

Видео
Идентификатор : 224 (0xE0)
Формат : MPEG Video
Версия формата : Version 2
Профиль формата : Main@Main
Параметр BVOP формата : Да
Параметр матрицы формата : По умолчанию
Параметры GOP формата : M=3, N=12
Продолжительность : 21 м.
Вид битрейта : Переменный
Битрейт : 6126 Кбит/сек
Номинальный битрейт : 7500 Кбит/сек
Ширина : 720 пикс.
Высота : 576 пикс.
Соотношение сторон : 16:9
Частота кадров : 25,000 кадр/сек
Стандарт вещания : PAL
Цветовое пространство : YUV
Подвыборка цветности : 4:2:0
Битовая глубина : 8 бит
Тип развёртки : Чересстрочная
Порядок развёртки : Верхнее поле первое
Метод сжатия : С потерями
Бит/(Пиксели*Кадры) : 0.591
Размер потока : 944 Мбайт (92%)

Аудио
Идентификатор : 189 (0xBD)-128 (0x80)
Формат : AC-3
Формат/Информация : Audio Coding 3
Расширение режима : CM (complete main)
Режим смешивания : DVD-Video
Продолжительность : 21 м.
Вид битрейта : Постоянный
Битрейт : 384 Кбит/сек
Канал(ы) : 6 канала(ов)
Расположение каналов : Front: L C R, Side: L R, LFE
Частота : 48,0 КГц
Битовая глубина : 16 бит
Метод сжатия : С потерями
Размер потока : 59,2 Мбайт (6%)

Текст
Идентификатор : 189 (0xBD)-32 (0x20)
Формат : RLE
Формат/Информация : Run-length encoding
Режим смешивания : DVD-Video










pb.wtf



Скачать Тайный знак через торрент http://i20.fastpic.ru/big/2011/0427/17/402a295910e4f1686a27623610355e17.jpg Скачать фильм Тайный знак через торрент бесплантно в хорошем качестве Описание: Мона Грэй — двадцатилетняя одинокая девушка, которая в детстве нашла утешение в изучении математики после того, как ее отец ... 4.8 10 4
Info! Золотая раздача, скачанное не засчитывается.
Торрент: Зарегистрирован [2011-04-27 11:28] · скачан: 12 раз
Статус: √ проверено
Размер: 4.2 GB
Как cкачать? Как скачать Тайный знак через торрент | UTorrent

28-11-2019 20:33  

Отключить всю рекламу на сайте

27-04-2011 13:51 Тайный знак Скачать торрент  

спасибо!pb.wtf



    Дорогой пользователь! Огромная просьба, поблагодарите релизера, оцените раздачу и оставьте свои комментарий, если Вы скачали Тайный знак через торрент бесплатно! Внесите свою лепту в развитие PiratBit!
    Комментировать посты могут только пользователи прошедшие не сложную регистрацию
    Показать сообщения:    

    Тайный знак через торрент
    Скачать бесплатно Тайный знак
    Тайный знак скачать торрент
    Тайный знак смотреть онлайн
    Cкачать фильм Тайный знак бесплатно
    Тайный знак скачать торрент в хорошем качестве
    Тайный знак смотреть онлайн бесплатно в хорошем качестве


    Вы не можете начинать темы
    Вы не можете отвечать на сообщения
    Вы не можете редактировать свои сообщения
    Вы не можете удалять свои сообщения
    Вы не можете голосовать в опросах
    Вы не можете прикреплять файлы к сообщениям
    Вы можете скачивать файлы