2 сезон

iTunes

1 сезон

1

iTunes

iTunes

iTunes

1 сезон

RePack

30

ИГРА 18+

pack

ВАЖНО

!!Акция!!

Alien_RageХит недели

RePack

MK11
pack

Забери бонус

RePack

jed

!!Акция!!

Alien_Rage

RePack

fifa19

RePack

Assassins Creed: Odyssey

RePack

NEED FOR SPEED™ PAYBACK

4 сезон

9 сезон

Бесстыжие 9 сезон

Все сериалы

все сериалы на PB.wtf

RePack

FAR CRY 5
  

Новая история трех поросят / Os 3 Porquinhos (Марселла Тамайо / Marcellin Tamayo) [2007 г., Мультфильм, DVDRip] pb.wtf

Новая история трех поросят через торрент pb.wtf

Размер: 742 MB | Добавлен: 9 лет 6 мес. назад | Торрент скачан:123 раза
Скачать  

27-04-2011 15:47 Новая история трех поросят Скачать торрент  

Новая история трех поросят / Os 3 Porquinhos
Год выпуска: 2007
Страна: Бразилия
Жанр: Мультфильм
Продолжительность: 00:43:22
Перевод: Профессиональный (многоголосый, закадровый) [Лицензия]
Режиссер: Марселла Тамайо / Marcellin Tamayo
Описание: Современная версия классической сказки. Вы будете с огромным удовольствием наблюдать за приключениями трех поросят, учиться дружбе, смелости, смеяться над незадачливым волком, петь песни и веселиться...
Качество: DVDRip
Формат: AVI
Видео кодек: XviD
Аудио кодек: AC3
Видео: 688x512 (1.34:1), 25 fps, XviD build 63, 2190 kbps avg, 0.25 bit/pixel
Аудио: Dolby AC3 48000Hz stereo 192kbps
Format : AVI
Format/Info : Audio Video Interleave
File size : 742 MiB
Duration : 43mn 22s
Overall bit rate : 2 392 Kbps
Writing application : VirtualDubMod 1.5.10.3 | www.virtualdub-fr.org || (build 2550/release)
Writing library : VirtualDubMod build 2550/release

Video
ID : 0
Format : MPEG-4 Visual
Format profile : Advanced Simple@L5
Format settings, BVOP : 1
Format settings, QPel : No
Format settings, GMC : No warppoints
Format settings, Matrix : Custom
Codec ID : XVID
Codec ID/Hint : XviD
Duration : 43mn 22s
Bit rate : 2 191 Kbps
Width : 688 pixels
Height : 512 pixels
Display aspect ratio : 4:3
Frame rate : 25.000 fps
Color space : YUV
Chroma subsampling : 4:2:0
Bit depth : 8 bits
Scan type : Progressive
Compression mode : Lossy
Bits/(Pixel*Frame) : 0.249
Stream size : 680 MiB (92%)
Writing library : XviD 63

Audio
ID : 1
Format : AC-3
Format/Info : Audio Coding 3
Mode extension : CM (complete main)
Codec ID : 2000
Duration : 43mn 22s
Bit rate mode : Constant
Bit rate : 192 Kbps
Channel(s) : 2 channels
Channel positions : Front: L R
Sampling rate : 48.0 KHz
Bit depth : 16 bits
Compression mode : Lossy
Stream size : 59.6 MiB (8%)
Alignment : Split accross interleaves
Interleave, duration : 40 ms (1.00 video frame)
Interleave, preload duration : 500 ms

скриншот  скриншот  скриншот  скриншот  скриншот  


pb.wtf



Скачать Новая история трех поросят через торрент http://i20.fastpic.ru/big/2011/0420/74/6bc87fd95ec5b548e1faeaad748d9f74.png Скачать фильм Новая история трех поросят через торрент бесплантно в хорошем качестве Описание: Современная классической сказки. Вы будете с огромным удовольствием наблюдать за приключениями трех поросят, учиться ... 4 10 5
Info! Золотая раздача, скачанное не засчитывается.
Торрент: Зарегистрирован [2011-04-27 15:47] · скачан: 123 раз
Статус: √ проверено
Размер: 742 MB
Как cкачать? Как скачать Новая история трех поросят через торрент | qTorrent

28-11-2019 20:33  

Отключить всю рекламу на сайте

27-04-2011 16:32 Новая история трех поросят Скачать торрент  

мда....pb.wtf



    Дорогой пользователь! Огромная просьба, поблагодарите релизера, оцените раздачу и оставьте свои комментарий, если Вы скачали Новая история трех поросят через торрент бесплатно! Внесите свою лепту в развитие PiratBit!
    Комментировать посты могут только пользователи прошедшие не сложную регистрацию
    Показать сообщения:    

    Новая история трех поросят через торрент
    Скачать бесплатно Новая история трех поросят
    Новая история трех поросят скачать торрент
    Новая история трех поросят смотреть онлайн
    Cкачать фильм Новая история трех поросят бесплатно
    Новая история трех поросят скачать торрент в хорошем качестве
    Новая история трех поросят смотреть онлайн бесплатно в хорошем качестве


    Вы не можете начинать темы
    Вы не можете отвечать на сообщения
    Вы не можете редактировать свои сообщения
    Вы не можете удалять свои сообщения
    Вы не можете голосовать в опросах
    Вы не можете прикреплять файлы к сообщениям
    Вы можете скачивать файлы