Ссылка на приватное зеркало нашего сайта всего за 1$. Внимание количество ограничено!!!

2 сезон

iTunes

1 сезон

1

iTunes

iTunes

iTunes

1 сезон

RePack

30

ИГРА 18+

pack

ВАЖНО

!!Акция!!

Alien_RageХит недели

RePack

MK11
pack

Забери бонус

RePack

jed

!!Акция!!

Alien_Rage

RePack

fifa19

RePack

Assassins Creed: Odyssey

RePack

NEED FOR SPEED™ PAYBACK

4 сезон

9 сезон

Бесстыжие 9 сезон

Все сериалы

все сериалы на PB.wtf

RePack

FAR CRY 5
  

Баллада о бомбере / Сезон: 1 Серии: 8 из 8 (Виталий Воробьев) [2011, военный, 2xDVD9] R5 «Lizard Cinema Trade» pb.wtf

Баллада о бомбере через торрент pb.wtf

Размер: 15.24 GB | Добавлен: 9 лет 6 мес. назад | Торрент скачан:107 раз
Скачать  

27-04-2011 17:09 Баллада о бомбере Скачать торрент  


Баллада о бомбере
Год выпуска: 2011
Страна: Россия, Украина
Студия: Film.UA, Шпиль
Жанр: военный
Российская премьера: 25 апреля 2011
Дата выхода DVD: 28 апреля 2011, «Lizard Cinema Trade»
Продолжительность: ~ 50 мин. серия
Перевод: Оригинал [Лицензия]
Cубтитры: нет
Оригинальная аудиодорожка: русский
Режиссёр: Виталий Воробьев
В ролях: Екатерина Астахова, Никита Ефремов, Александр Давыдов (II), Виктория Толстоганова, Нина Усатова, Владимир Ильин, Борис Каморзин, Тимофей Трибунцев, Егор Баринов, Владислав Абашин, Юрий Гурьев, Андрей Гусев, Евгений Ефремов, Сергей Калантай, Алексей Шемес
Описание: Во время Второй мировой войны на территории, оккупированной немцами, разбивается советский самолет, но летевшие в нем на задание летчик Гривцов и его возлюбленная радистка Катя чудом спасаются. Удалось выжить и штурману Линько. Каждому из них теперь придется найти свой путь, чтобы выполнить боевое задание, вернуться к своим, и выжить…
Доп. информация: нет

Релиз группы:



Качество: 2xDVD9 R5
Формат: DVD-Video
Видео кодек: MPEG2
Аудио кодек: AC3
Видео: PAL 16:9 (720x576(0.444)) MPEG Video,25,000 кадр/сек, 4606 Кбит/сек
Аудио: Russian (Dolby AC3, 6 ch) 448 Кбит/сек, 48,0 КГц



Title: O
Size: 7.65 Gb ( 8 019 262 KBytes ) - DVD-9
Enabled regions: 1, 2, 3, 4, 5, 6, 7, 8

VTS_01 :
Play Length: 00:50:27+00:53:21+00:51:28+00:51:56
Video: PAL 16:9 (720x576) VBR, Auto Letterboxed
Audio:
Russian (Dolby AC3, 6 ch)

Menu Video:
PAL 16:9 (720x576) VBR
Auto Letterboxed
Menu Audio:
Not specified (Dolby AC3, 6 ch)
Menu Subtitles:
Not specified
Menu English Language Unit :
Root Menu
Title: O
Size: 7.59 Gb ( 7 961 360 KBytes ) - DVD-9
Enabled regions: 1, 2, 3, 4, 5, 6, 7, 8

VTS_01 :
Play Length: 00:52:26+00:51:32+00:50:00+00:52:08
Video: PAL 16:9 (720x576) VBR, Auto Letterboxed
Audio:
Russian (Dolby AC3, 6 ch)

Menu Video:
PAL 16:9 (720x576) VBR
Auto Letterboxed
Menu Audio:
Not specified (Dolby AC3, 6 ch)
Menu Subtitles:
Not specified
Menu English Language Unit :
Root Menu
Общее
Полное имя : H:\Новинки 2011\Ballada.o.bombere.2011.DVD9\DVD1\VIDEO_TS\VTS_01_3.VOB
Формат : MPEG-PS
Размер файла : 1024 Мбайт
Продолжительность : 27 м.
Общий поток : 5157 Кбит/сек

Видео
Идентификатор : 224 (0xE0)
Формат : MPEG Video
Версия формата : Version 2
Профиль формата : Main@Main
Параметр BVOP формата : Да
Параметр матрицы формата : По умолчанию
Параметры GOP формата : M=3, N=12
Продолжительность : 27 м.
Вид битрейта : Переменный
Битрейт : 4606 Кбит/сек
Номинальный битрейт : 8000 Кбит/сек
Ширина : 720 пикс.
Высота : 576 пикс.
Соотношение сторон : 16:9
Частота кадров : 25,000 кадр/сек
Стандарт вещания : PAL
Цветовое пространство : YUV
Подвыборка цветности : 4:2:0
Битовая глубина : 8 бит
Тип развёртки : Прогрессивная
Метод сжатия : С потерями
Бит/(Пиксели*Кадры) : 0.444
Размер потока : 915 Мбайт (89%)

Аудио
Идентификатор : 189 (0xBD)-128 (0x80)
Формат : AC-3
Формат/Информация : Audio Coding 3
Расширение режима : CM (complete main)
Режим смешивания : DVD-Video
Продолжительность : 27 м.
Вид битрейта : Постоянный
Битрейт : 448 Кбит/сек
Канал(ы) : 6 канала(ов)
Расположение каналов : Front: L C R, Side: L R, LFE
Частота : 48,0 КГц
Битовая глубина : 16 бит
Метод сжатия : С потерями
Задержка видео : -320 мс.
Размер потока : 89,0 Мбайт (9%)
Общее
Полное имя : H:\Новинки 2011\Ballada.o.bombere.2011.DVD9\DVD2\VIDEO_TS\VTS_01_2.VOB
Формат : MPEG-PS
Размер файла : 1024 Мбайт
Продолжительность : 35 м.
Общий поток : 4054 Кбит/сек

Видео
Идентификатор : 224 (0xE0)
Формат : MPEG Video
Версия формата : Version 2
Профиль формата : Main@Main
Параметр BVOP формата : Да
Параметр матрицы формата : По умолчанию
Параметры GOP формата : M=3, N=12
Продолжительность : 35 м.
Вид битрейта : Переменный
Битрейт : 3526 Кбит/сек
Номинальный битрейт : 8000 Кбит/сек
Ширина : 720 пикс.
Высота : 576 пикс.
Соотношение сторон : 16:9
Частота кадров : 25,000 кадр/сек
Стандарт вещания : PAL
Цветовое пространство : YUV
Подвыборка цветности : 4:2:0
Битовая глубина : 8 бит
Тип развёртки : Чересстрочная
Порядок развёртки : Верхнее поле первое
Метод сжатия : С потерями
Бит/(Пиксели*Кадры) : 0.340
Размер потока : 890 Мбайт (87%)

Аудио
Идентификатор : 189 (0xBD)-128 (0x80)
Формат : AC-3
Формат/Информация : Audio Coding 3
Расширение режима : CM (complete main)
Режим смешивания : DVD-Video
Продолжительность : 35 м.
Вид битрейта : Постоянный
Битрейт : 448 Кбит/сек
Канал(ы) : 6 канала(ов)
Расположение каналов : Front: L C R, Side: L R, LFE
Частота : 48,0 КГц
Битовая глубина : 16 бит
Метод сжатия : С потерями
Задержка видео : -512 мс.
Размер потока : 113 Мбайт (11%)










pb.wtf



Скачать Баллада о бомбере через торрент http://i20.fastpic.ru/big/2011/0427/1d/4119b5e425458e5263eaf83fc55cad1d.jpg Скачать фильм Баллада о бомбере через торрент бесплантно в хорошем качестве Описание: Во время Второй мировой войны на территории, оккупированной немцами, разбивается советский самолет, но летевшие в нем на задание ... 5 10 17
Info! Золотая раздача, скачанное не засчитывается.
Торрент: Зарегистрирован [2011-04-27 17:09] · скачан: 107 раз
Статус: √ проверено
Размер: 15.24 GB
Как cкачать? Как скачать Баллада о бомбере через торрент | qTorrent

28-11-2019 20:33  

Отключить всю рекламу на сайте

    Дорогой пользователь! Огромная просьба, поблагодарите релизера, оцените раздачу и оставьте свои комментарий, если Вы скачали Баллада о бомбере через торрент бесплатно! Внесите свою лепту в развитие PiratBit!
    Комментировать посты могут только пользователи прошедшие не сложную регистрацию
    Показать сообщения:    

    Баллада о бомбере через торрент
    Скачать бесплатно Баллада о бомбере
    Баллада о бомбере скачать торрент
    Баллада о бомбере смотреть онлайн
    Cкачать фильм Баллада о бомбере бесплатно
    Баллада о бомбере скачать торрент в хорошем качестве
    Баллада о бомбере смотреть онлайн бесплатно в хорошем качестве


    Вы не можете начинать темы
    Вы не можете отвечать на сообщения
    Вы не можете редактировать свои сообщения
    Вы не можете удалять свои сообщения
    Вы не можете голосовать в опросах
    Вы не можете прикреплять файлы к сообщениям
    Вы можете скачивать файлы