1 сезон

3 сезон

iTunes

1

Line

MVO

iTunes

13

1 сезон

RePack

30

Deluxe

pack

Лицензия

ВАЖНО

ИГРА 18+

pack

RePack

MK11

RePack

jed

RePack

fifa19

RePack

RDR2

RePack

NEED FOR SPEED™ PAYBACK

4 сезон

9 сезон

Бесстыжие 9 сезон

Все сериалы

все сериалы на PB.wtf

RePack

FAR CRY 5

Anonymous, доброе утро, мы катастрофически не успеваем собрать деньги на оплату серверов, помогите нам пожалуйста 5,10,15р., для нас важна любая помощь . В качестве благодарности мы отключим Вам всю рекламу на сайте (укажите свой ник в строку Ваше имя)!

×
  
Magnet ссылка

Снайпер 4 / Sniper: Reloaded (Клаудио Фах / Claudio Fah) [2011, Германия, ЮАР, боевик, триллер, драма, военный, DVD9] R5 «Columbia/Sonpb.wtf

Снайпер 4 через торрент pb.wtf

Размер: 4.66 GB | Добавлен: 10 лет назад | Торрент скачан:49 раз
Скачать  

27-04-2011 21:04 Снайпер 4 Скачать торрент  


Снайпер 4 / Sniper: Reloaded
Страна: Германия, ЮАР
Студия: ApolloMovie Beteiligungs, Film Afrika Worldwide CC, Stage 6 Films
Жанр: боевик, триллер, драма, военный
Год выпуска: 2011
Мировая премьера: 26 апреля 2011
Дата выхода DVD: 28 апреля 2011, «Columbia/Sony»
Продолжительность: 01:27:39
Перевод: Профессиональный (многоголосый закадровый) [Лицензия]
Cубтитры: английские, арабские, хорватские, эстонские, греческие, хинди, исландские, польские, португальские, румынские, сербские, словенские, турецкие, украинские
Режиссер: Клаудио Фах / Claudio Fah
В ролях: Чад Коллинз, Ричард Саммел, Анабель Райт, Билли Зейн, Патрик Листер, Конрад Кемп, Роб Фрюйтхоф
Описание: При работе с ООН в Демократической Республике Конго сержант морской пехоты Брэндон Беккет, сын известного снайпера Томаса Беккета, получает приказ спасти европейских фермеров с захваченных территорий повстанцев. Когда он и его люди прибыли на ферму, то таинственный снайпер из засады их обстрелял, ранив Беккета и убив всех остальных. С помощью бывшего протеже отца, снайпера инструктора Ричарда Миллера, Беккету придется научиться действовать и думать как снайпер чтобы разыскать вражеского снайпера.
Бонусы: Нет

Качество: DVD9 R5
Формат: DVD-Video
Видео кодек: MPEG2
Аудио кодек: AC3
Видео: PAL 16:9 (720x576(0.612)) MPEG Video,25,000 кадр/сек, 6346 Кбит/сек
Аудио: Russian / Polish / English (Dolby AC3, 6 ch) 448 Кбит/сек, 48,0 КГц



Title: O
Size: 4.66 Gb ( 4 890 870 KBytes ) - DVD-9
Enabled regions: 1, 2, 3, 4, 5, 6, 7, 8

VTS_01 :
Play Length: 01:27:39
Video: PAL 16:9 (720x576) VBR, Auto Pan&Scan
Audio:
English (Dolby AC3, 6 ch)
Russian (Dolby AC3, 6 ch)
Polish (Dolby AC3, 6 ch)
Subtitles:
English
Russian
Polish
Arabic
Hrvatski
Estonian
Greek
Hindi
Islenska
Portugues
Romanian
Serbian
Slovenian
Turkish
Ukrainian
Not specified
Not specified
Not specified
Not specified
Not specified
Not specified
Not specified
Not specified
Not specified
Not specified
Not specified
Not specified
Not specified
Not specified

VTS_02 :
Play Length: 00:00:14
Video: PAL 16:9 (720x576) VBR, Auto Letterboxed
Audio:
English (Dolby AC3, 6 ch)
VTS_03 :
Play Length: 00:00:10
Video: PAL 16:9 (720x576) VBR, Auto Pan&Scan

VTS_04 :
Play Length: 00:00:08
Video: PAL 16:9 (720x576) VBR, Auto Pan&Scan

VTS_05 :
Play Length: 00:00:10
Video: PAL 4:3 (720x576) VBR
Audio:
English (Dolby AC3, 6 ch)
Subtitles:
Russian
Polish
Arabic
Hrvatski
Greek
Hindi
Islenska
Portugues
Romanian
Serbian
Slovenian
Turkish
Общее
Полное имя : H:\Новинки 2011\Sniper.4.2011.DVD9\VIDEO_TS\VTS_01_1.VOB
Формат : MPEG-PS
Размер файла : 1024 Мбайт
Продолжительность : 18 м.
Общий поток : 7846 Кбит/сек

Видео
Идентификатор : 224 (0xE0)
Формат : MPEG Video
Версия формата : Version 2
Профиль формата : Main@Main
Параметр BVOP формата : Да
Параметр матрицы формата : По умолчанию
Продолжительность : 18 м.
Вид битрейта : Переменный
Битрейт : 6346 Кбит/сек
Номинальный битрейт : 9800 Кбит/сек
Ширина : 720 пикс.
Высота : 576 пикс.
Соотношение сторон : 16:9
Частота кадров : 25,000 кадр/сек
Стандарт вещания : PAL
Цветовое пространство : YUV
Подвыборка цветности : 4:2:0
Битовая глубина : 8 бит
Тип развёртки : Чересстрочная
Порядок развёртки : Верхнее поле первое
Метод сжатия : С потерями
Бит/(Пиксели*Кадры) : 0.612
Размер потока : 828 Мбайт (81%)

Аудио #1
Идентификатор : 189 (0xBD)-128 (0x80)
Формат : AC-3
Формат/Информация : Audio Coding 3
Расширение режима : CM (complete main)
Режим смешивания : DVD-Video
Продолжительность : 18 м.
Вид битрейта : Постоянный
Битрейт : 448 Кбит/сек
Канал(ы) : 6 канала(ов)
Расположение каналов : Front: L C R, Side: L R, LFE
Частота : 48,0 КГц
Битовая глубина : 16 бит
Метод сжатия : С потерями
Размер потока : 58,4 Мбайт (6%)

Аудио #2
Идентификатор : 189 (0xBD)-129 (0x81)
Формат : AC-3
Формат/Информация : Audio Coding 3
Расширение режима : CM (complete main)
Режим смешивания : DVD-Video
Продолжительность : 18 м.
Вид битрейта : Постоянный
Битрейт : 448 Кбит/сек
Канал(ы) : 6 канала(ов)
Расположение каналов : Front: L C R, Side: L R, LFE
Частота : 48,0 КГц
Битовая глубина : 16 бит
Метод сжатия : С потерями
Размер потока : 58,4 Мбайт (6%)

Аудио #3
Идентификатор : 189 (0xBD)-130 (0x82)
Формат : AC-3
Формат/Информация : Audio Coding 3
Расширение режима : CM (complete main)
Режим смешивания : DVD-Video
Продолжительность : 18 м.
Вид битрейта : Постоянный
Битрейт : 448 Кбит/сек
Канал(ы) : 6 канала(ов)
Расположение каналов : Front: L C R, Side: L R, LFE
Частота : 48,0 КГц
Битовая глубина : 16 бит
Метод сжатия : С потерями
Размер потока : 58,4 Мбайт (6%)










pb.wtf



Скачать Снайпер 4 через торрент http://i20.fastpic.ru/big/2011/0428/7e/ac76524de59352707498464021377c7e.jpg Скачать фильм Снайпер 4 через торрент бесплантно в хорошем качестве Описание: При работе с ООН в Демократической Республике Конго сержант морской пехоты Брэндон Беккет, сын известного снайпера Томаса ... 10 10 1
Info! Золотая раздача, скачанное не засчитывается.
Торрент: Зарегистрирован [2011-04-27 21:04] · скачан: 49 раз
Статус: √ проверено
Размер: 4.66 GB
Как cкачать? Как скачать Снайпер 4 через торрент | UTorrent

28-11-2019 20:33  

Отключить всю рекламу на сайте

    Дорогой пользователь! Огромная просьба, поблагодарите релизера, оцените раздачу и оставьте свои комментарий, если Вы скачали Снайпер 4 через торрент бесплатно! Внесите свою лепту в развитие PiratBit!
    Комментировать посты могут только пользователи прошедшие не сложную регистрацию
    Показать сообщения:    

    Снайпер 4 через торрент
    Скачать бесплатно Снайпер 4
    Снайпер 4 скачать торрент
    Снайпер 4 смотреть онлайн
    Cкачать фильм Снайпер 4 бесплатно
    Снайпер 4 скачать торрент в хорошем качестве
    Снайпер 4 смотреть онлайн бесплатно в хорошем качестве


    Вы не можете начинать темы
    Вы не можете отвечать на сообщения
    Вы не можете редактировать свои сообщения
    Вы не можете удалять свои сообщения
    Вы не можете голосовать в опросах
    Вы не можете прикреплять файлы к сообщениям
    Вы можете скачивать файлы