1 сезон

3 сезон

iTunes

1

iTunes

MVO

iTunes

13

1 сезон

RePack

30

Deluxe

pack

Лицензия

ВАЖНО

ИГРА 18+

pack

RePack

MK11

RePack

jed

RePack

fifa19

RePack

RDR2

RePack

NEED FOR SPEED™ PAYBACK

4 сезон

9 сезон

Бесстыжие 9 сезон

Все сериалы

все сериалы на PB.wtf

RePack

FAR CRY 5

Anonymous, доброй ночи, мы катастрофически не успеваем собрать деньги на оплату серверов, помогите нам пожалуйста 5,10,15р., для нас важна любая помощь . В качестве благодарности мы отключим Вам всю рекламу на сайте (укажите свой ник в строку Ваше имя)!

×
  
Magnet ссылка

Лабиринт страха / Shock Labyrinth / Senritsu meikyû (Такаши Шимицу / Takashi Shimizu) [2009, Япония, ужасы, триллер, DVD9] R5 «Вольга» pb.wtf

Лабиринт страха через торрент pb.wtf

Размер: 5.08 GB | Добавлен: 10 лет назад | Торрент скачан:14 раз
Скачать  

04-05-2011 01:44 Лабиринт страха Скачать торрент  


Лабиринт страха / Senritsu meikyu
«Зайди на свой страх»
Страна: Япония
Студия: Asmik Ace Entertainment, Ogura Jimusyo Co. Ltd.
Жанр: ужасы, триллер
Год выпуска: 2009
Мировая премьера: 17 октября 2009
Дата выхода DVD: 28 апреля 2011, «Вольга»
Продолжительность: 01:28:55
Перевод: Профессиональный (многоголосый закадровый) [Лицензия]
Cубтитры: нет
Режиссер: Такаши Шимицу / Takashi Shimizu
В ролях: Ай Маэда, Юя Ягира, Сузуки Матсуо, Мисако Ренбуцу, Рио Кацудзи, Сойчиро Масумото, Эрина Мизуно
Описание: 10 лет назад компания одноклассников оставила Юки в «Лабиринте Страха», аттракционе местного Парка Развлечений. Спустя 10 лет она вернется за ними, чтобы отомстить…
Бонусы: нет

Качество: DVD9 R5
Формат: DVD-Video
Видео кодек: MPEG2
Аудио кодек: AC3
Видео: PAL 16:9 (720x576(0.579)) MPEG Video,25,000 кадр/сек, 5999 Кбит/сек
Аудио #1: Russian (Dolby AC3, 6 ch) 448 Кбит/сек, 48,0 КГц
Аудио #2: Russian (DTS, 5 ch) 1510 Кбит/сек, 48,0 КГц



Title: O
Size: 5.08 Gb ( 5 328 974 KBytes ) - DVD-9
Enabled regions: 1, 2, 3, 4, 5, 6, 7, 8

VTS_01 :
Play Length: 00:00:10
Video: PAL 4:3 (720x576) VBR

VTS_02 :
Play Length: 00:00:06
Video: PAL 16:9 (720x576) VBR, Auto Letterboxed

VTS_03 :
Play Length: 01:25:00
Video: PAL 16:9 (720x576) VBR, Auto Letterboxed
Audio:
Russian (Dolby AC3, 6 ch)
Russian (DTS, 5 ch)

Menu Video:
PAL 16:9 (720x576) VBR
Auto Pan&Scan, Auto Letterboxed
Menu Subtitles:
Not specified
Menu English Language Unit :
Root Menu
Audio Menu
Chapter (PTT) Menu
Общее
Полное имя : H:\Новинки 2011\Labirint.straha.2009.DVD9\VIDEO_TS\VTS_03_1.VOB
Формат : MPEG-PS
Размер файла : 1024 Мбайт
Продолжительность : 17 м.
Общий поток : 8118 Кбит/сек

Видео
Идентификатор : 224 (0xE0)
Формат : MPEG Video
Версия формата : Version 2
Профиль формата : Main@Main
Параметр BVOP формата : Да
Параметр матрицы формата : По умолчанию
Продолжительность : 17 м.
Вид битрейта : Переменный
Битрейт : 5999 Кбит/сек
Ширина : 720 пикс.
Высота : 576 пикс.
Соотношение сторон : 16:9
Частота кадров : 25,000 кадр/сек
Стандарт вещания : PAL
Цветовое пространство : YUV
Подвыборка цветности : 4:2:0
Битовая глубина : 8 бит
Метод сжатия : С потерями
Бит/(Пиксели*Кадры) : 0.579
Размер потока : 757 Мбайт (74%)

Аудио #1
Идентификатор : 189 (0xBD)-128 (0x80)
Формат : AC-3
Формат/Информация : Audio Coding 3
Расширение режима : CM (complete main)
Режим смешивания : DVD-Video
Продолжительность : 17 м.
Вид битрейта : Постоянный
Битрейт : 448 Кбит/сек
Канал(ы) : 6 канала(ов)
Расположение каналов : Front: L C R, Side: L R, LFE
Частота : 48,0 КГц
Битовая глубина : 16 бит
Метод сжатия : С потерями
Размер потока : 56,5 Мбайт (6%)

Аудио #2
Идентификатор : 189 (0xBD)-137 (0x89)
Формат : DTS
Формат/Информация : Digital Theater Systems
Режим смешивания : DVD-Video
Продолжительность : 17 м.
Вид битрейта : Постоянный
Битрейт : 1510 Кбит/сек
Канал(ы) : 6 канала(ов)
Расположение каналов : Front: L C R, Side: L R, LFE
Частота : 48,0 КГц
Битовая глубина : 24 бит
Метод сжатия : С потерями
Размер потока : 190 Мбайт (19%)










pb.wtf



Скачать Лабиринт страха через торрент http://i20.fastpic.ru/big/2011/0430/bd/6b1f93d6132bd7e93f245396dfdefbbd.jpg Скачать фильм Лабиринт страха через торрент бесплантно в хорошем качестве Описание: 10 лет назад компания одноклассников оставила Юки в «Лабиринте Страха», аттракционе местного Парка Развлечений. Спустя 10 лет она ... 10 10 1
Info! Золотая раздача, скачанное не засчитывается.
Торрент: Зарегистрирован [2011-05-04 01:44] · скачан: 14 раз
Статус: √ проверено
Размер: 5.08 GB
Как cкачать? Как скачать Лабиринт страха через торрент | UTorrent

28-11-2019 20:33  

Отключить всю рекламу на сайте

    Дорогой пользователь! Огромная просьба, поблагодарите релизера, оцените раздачу и оставьте свои комментарий, если Вы скачали Лабиринт страха через торрент бесплатно! Внесите свою лепту в развитие PiratBit!
    Комментировать посты могут только пользователи прошедшие не сложную регистрацию
    Показать сообщения:    

    Лабиринт страха через торрент
    Скачать бесплатно Лабиринт страха
    Лабиринт страха скачать торрент
    Лабиринт страха смотреть онлайн
    Cкачать фильм Лабиринт страха бесплатно
    Лабиринт страха скачать торрент в хорошем качестве
    Лабиринт страха смотреть онлайн бесплатно в хорошем качестве


    Вы не можете начинать темы
    Вы не можете отвечать на сообщения
    Вы не можете редактировать свои сообщения
    Вы не можете удалять свои сообщения
    Вы не можете голосовать в опросах
    Вы не можете прикреплять файлы к сообщениям
    Вы можете скачивать файлы