2 сезон

iTunes

1 сезон

1

iTunes

iTunes

iTunes

1 сезон

RePack

30

ИГРА 18+

pack

ВАЖНО

!!Акция!!

Alien_RageХит недели

RePack

MK11
pack

Забери бонус

RePack

jed

!!Акция!!

Alien_Rage

RePack

fifa19

RePack

Assassins Creed: Odyssey

RePack

NEED FOR SPEED™ PAYBACK

4 сезон

9 сезон

Бесстыжие 9 сезон

Все сериалы

все сериалы на PB.wtf

RePack

FAR CRY 5
  

Гарри Поттер и Дары смерти: Часть 1 / Harry Potter and the Deathly Hallows: Part 1 (Дэвид Йэтс) [2010 г., фэнтези, драма, детектив, приключения, BDRip (720p)] pb.wtf

Гарри Поттер и Дары смерти: Часть 1 через торрент pb.wtf

Размер: 2.13 GB | Добавлен: 9 лет 5 мес. назад | Торрент скачан:1362 раза
Скачать  

04-05-2011 16:14 Гарри Поттер и Дары смерти: Часть 1 Скачать торрент  



Название: Гарри Поттер и Дары смерти: Часть 1
Оригинальное название: Harry Potter and the Deathly Hallows: Part 1

Год выхода: 2010
Жанр: Фэнтези, детектив, приключения, семейный
Режиссер: Дэвид Йэтс
В ролях: Дэниэл Рэдклифф, Эмма Уотсон, Том Фелтон, Руперт Грин,т Хелена Бонем, Картер Рэйф, Файнс Клеманс, Поэзи Бонни, Райт Рис Иванс, Алан Рикман

«Опасность повсюду»

Описание:
Гарри Поттера ждёт самое страшное испытание в жизни — смертельная схватка с Волан-де-Мортом. Ждать помощи не от кого — Гарри одинок, как никогда… Друзья и враги Гарри предстают в совершенно неожиданном свете. Граница между Добром и Злом становится всё призрачнее…

Продолжительность: 02:26:05

Перевод: Профессиональный (Полное дублирование) Лицензия
Выпущено: США, Великобритания |



Качество
: BDRip (720p)
Формат: MKV
Видео кодек: H.26x
Аудио кодек: AC3
Видео: 1280x534, 2 092 Кбит/сек, 23,976 кадр/сек, AVC, x264, 2,35:1, 0.102 Бит/(Пиксели*Кадры)
Аудио: AC-3, 384 Кбит/сек, 6 канала(ов), 48,0 КГц
Размер: 2.13 GB




Рейтинг MPAA:



Бюджет Фильма:£150 000 000
Кассовые сборы:$952 163 279
* Возглавить постановку могли М. Найт Шьямалан и Гильермо Дель Торо.
* Дэвид Холмс, каскадер и дублер Даниэла Рэдклиффа, получил серьёзную травму спины при падении во время производства взрыва.
* Джон Уильямс, композитор первых трех частей о Гарри Поттере, выражал интерес вернуться к работе в Гарри Поттер и Дары смерти. Часть 1.
* Билла Уизли играет Домналл Глисон, сын актера Брендана Глисона.
General
Complete name : D:DCGarri.Potter.i.Dary.Smerti.Ch.1.2010.D.BDRip.720p.[nolimits-team].mkv
Format : Matroska
File size : 2.13 GiB
Duration : 2h 26mn
Overall bit rate : 2 092 Kbps
Movie name : Rip by victordan 95
Encoded date : UTC 2011-04-06 03:29:53
Writing application : mkvmerge v3.2.0 ('Beginnings') built on Feb 12 2010 16:46:17
Writing library : libebml v0.7.9 + libmatroska v0.8.1

Video
ID : 1
Format : AVC
Format/Info : Advanced Video Codec
Format profile : High@L4.1
Format settings, CABAC : Yes
Format settings, ReFrames : 5 frames
Muxing mode : Container profile=Unknown@4.1
Codec ID : V_MPEG4/ISO/AVC
Duration : 2h 25mn
Bit rate : 1 666 Kbps
Nominal bit rate : 1 706 Kbps
Width : 1 280 pixels
Height : 534 pixels
Display aspect ratio : 2.35:1
Original display aspect ratio : 2.35:1
Frame rate : 23.976 fps
Resolution : 8 bits
Colorimetry : 4:2:0
Scan type : Progressive
Bits/(Pixel*Frame) : 0.102
Stream size : 1.70 GiB (80%)
Writing library : x264 core 114 r1913 5fd3dce
Encoding settings : cabac=1 / ref=6 / deblock=1:0:0 / analyse=0x3:0x113 / me=umh / subme=8 / psy=1 / psy_rd=1.00:0.00 / mixed_ref=1 / me_range=16 / chroma_me=1 / trellis=1 / 8x8dct=1 / cqm=0 / deadzone=21,11 / fast_pskip=1 / chroma_qp_offset=-2 / threads=3 / sliced_threads=0 / slices=4 / nr=0 / decimate=1 / interlaced=0 / constrained_intra=0 / bframes=3 / b_pyramid=1 / b_adapt=1 / b_bias=0 / direct=3 / weightb=1 / open_gop=0 / weightp=1 / keyint=24 / keyint_min=1 / scenecut=40 / intra_refresh=0 / rc_lookahead=24 / rc=2pass / mbtree=1 / bitrate=1706 / ratetol=1.0 / qcomp=0.60 / qpmin=0 / qpmax=69 / qpstep=4 / cplxblur=20.0 / qblur=0.5 / vbv_maxrate=15000 / vbv_bufsize=15000 / nal_hrd=vbr / ip_ratio=1.10 / aq=1:1.00
Language : English

Audio
ID : 2
Format : AC-3
Format/Info : Audio Coding 3
Codec ID : A_AC3
Duration : 2h 26mn
Bit rate mode : Constant
Bit rate : 384 Kbps
Channel(s) : 6 channels
Channel positions : Front: L C R, Surround: L R, LFE
Sampling rate : 48.0 KHz
Stream size : 401 MiB (18%)
Title : DD 5.1 Russian @ 384 kbps
Language : Russian
скриншот  скриншот  скриншот  

pb.wtf



Скачать Гарри Поттер и Дары смерти: Часть 1 через торрент http://i19.fastpic.ru/big/2011/0406/dd/172f1df08aeca105af853116e5e4a2dd.png Скачать фильм Гарри Поттер и Дары смерти: Часть 1 через торрент бесплантно в хорошем качестве Описание: Гарри Поттера ждёт самое страшное испытание в жизни — смертельная схватка с Волан-де-Мортом. Ждать помощи не от кого — Гарри ... 10 10 15
Info! Золотая раздача, скачанное не засчитывается.
Торрент: Зарегистрирован [2011-05-04 16:14] · скачан: 1 362 раз
Статус: √ проверено
Размер: 2.13 GB
Как cкачать? Как скачать Гарри Поттер и Дары смерти: Часть 1 через торрент | qTorrent

% Раздел Тема Автор DL S | L
Ultra HD (UHD: 2K, 4K, 8K) — видео сверхвысокой чёткости [ 56.91 GB ] Гарри Поттер и Дары смерти: Часть 1 / Harry Potter and the Deathly Hallows: Part 1 [2010 UHD BD Remux 2160p] AVO+DUB bober100 Скачать
3 | 0
Фильмы [HD 720p, 1080p] (Хороший звук DUB, MVO) [ 7.76 GB ] Гарри Поттер и дары смерти: Часть 1 / Harry Potter and the Deathly Hallows: Part 1 [2010 BDRip 1080p + Оригинал] Бумер Скачать
2 | 0
Action TPS (3rd Person) [ 4.01 GB ] Harry Potter and the Deathly Hallows Part II / Гарри Поттер и Дары Смерти. Часть 2 [Repack RUS] от =nemos= Nemos Скачать
2 | 0
3D Фильмы [ 6.1 GB ] Гарри Поттер и Дары смерти: Часть I / Harry Potter and the Deathly Hallows: Part 1 2010 BDRip/вертикальная анаморфная стереопара marik05 Скачать
1 | 0
Фильмы 2010 [ 2.05 GB ] Гарри Поттер и Дары смерти: Часть 1 / Harry Potter and the Deathly Hallows: Part 1 [2010 HDRip] Lil Badun Скачать
1 | 0
Фильмы 2010 [ 2.91 GB ] Гарри Поттер и Дары смерти: Часть 1 / Harry Potter and the Deathly Hallows: Part 1 [2011 BDRip-AVC ] Vadlen Скачать
3 | 0
Фильмы [HD 720p, 1080p] (Хороший звук DUB, MVO) [ 6.66 GB ] Гарри Поттер и Дары смерти: Часть 1 / Harry Potter and the Deathly Hallows: Part 1 [2010 BDRip лицензия] Чупачупсик Скачать
1 | 0


Последний раз редактировалось: ACFIORENTINA (2011-05-05 21:19), всего редактировалось 1 раз

28-11-2019 20:33  

Отключить всю рекламу на сайте

05-05-2011 17:13 Гарри Поттер и Дары смерти: Часть 1 Скачать торрент  

скриншоты сделайте нормальные.pb.wtf



05-05-2011 17:16 Гарри Поттер и Дары смерти: Часть 1 Скачать торрент  

ACFIORENTINA
исправьте скриншотыpb.wtf



    Дорогой пользователь! Огромная просьба, поблагодарите релизера, оцените раздачу и оставьте свои комментарий, если Вы скачали Гарри Поттер и Дары смерти: Часть 1 через торрент бесплатно! Внесите свою лепту в развитие PiratBit!
    Комментировать посты могут только пользователи прошедшие не сложную регистрацию
    Показать сообщения:    

    Гарри Поттер и Дары смерти: Часть 1 через торрент
    Скачать бесплатно Гарри Поттер и Дары смерти: Часть 1
    Гарри Поттер и Дары смерти: Часть 1 скачать торрент
    Гарри Поттер и Дары смерти: Часть 1 смотреть онлайн
    Cкачать фильм Гарри Поттер и Дары смерти: Часть 1 бесплатно
    Гарри Поттер и Дары смерти: Часть 1 скачать торрент в хорошем качестве
    Гарри Поттер и Дары смерти: Часть 1 смотреть онлайн бесплатно в хорошем качестве


    Вы не можете начинать темы
    Вы не можете отвечать на сообщения
    Вы не можете редактировать свои сообщения
    Вы не можете удалять свои сообщения
    Вы не можете голосовать в опросах
    Вы не можете прикреплять файлы к сообщениям
    Вы можете скачивать файлы