1 сезон

3 сезон

iTunes

1

Line

MVO

iTunes

13

1 сезон

RePack

30

Deluxe

pack

Лицензия

ВАЖНО

ИГРА 18+

pack

RePack

MK11

RePack

jed

RePack

fifa19

RePack

RDR2

RePack

NEED FOR SPEED™ PAYBACK

4 сезон

9 сезон

Бесстыжие 9 сезон

Все сериалы

все сериалы на PB.wtf

RePack

FAR CRY 5

Anonymous, доброе утро, мы катастрофически не успеваем собрать деньги на оплату серверов, помогите нам пожалуйста 5,10,15р., для нас важна любая помощь . В качестве благодарности мы отключим Вам всю рекламу на сайте (укажите свой ник в строку Ваше имя)!

×
  
Magnet ссылка

Вкус ночи / Wir sind die Nacht (Деннис Ганзель / Dennis Gansel) [2010, Германия, ужасы, фэнтези, драма, мелодрама, DVD9] R5 «Вольга» pb.wtf

Вкус ночи через торрент pb.wtf

Размер: 6.61 GB | Добавлен: 10 лет назад | Торрент скачан:39 раз
Скачать  

06-05-2011 12:50 Вкус ночи Скачать торрент  


Вкус ночи / Wir sind die Nacht
«Перевернуть мир ради вечной любви»
Страна: Германия
Студия: Celluloid Dreams, Constantin Film Produktion GmbH, Rat Pack Filmproduktion GmbH
Жанр: ужасы, фэнтези, драма, мелодрама
Год выпуска: 2010
Мировая премьера: 14 октября 2010
Российская премьера: 7 апреля 2011, «Вольга»
Дата выхода DVD: 12 мая 2011, «Вольга»
Продолжительность: 01:35:40
Перевод: Профессиональный (дублированный) [Лицензия]
Cубтитры: русские
Оригинальная аудиодорожка: немецкий
Режиссер: Деннис Ганзель / Dennis Gansel
В ролях: Каролине Херфурт, Нина Хосс, Дженнифер Ульрих, Анна Фишер, Макс Римельт, Валера Канищев, Дороти Киршнер, Арвед Бирнбаум, Штеффи Кюнерт, Йохен Никель
Описание: Лина — трудный подросток, она не находит общего языка с родителями и сверстниками, промышляет мелким воровством. Однажды, пробравшись на закрытую вечеринку, она знакомится с богатой и эффектной Луизой — вампиром, главенствующим в трио себе подобных существ, куда также входят бесшабашная Нора и томная Шарлотта. Луиза решает приобщить закомплексованную и зажатую девушку к своей банде. Теперь Лине суждено познать блеск и проклятие вечной жизни «неупокоенных». Перед ней открываются все двери в мир гламура и беспредельной свободы. И с каждой ночью ее новые подруги становятся все ненасытнее, а число жертв вурдалаков безудержно растет. Но когда за расследование их преступлений берется давний знакомый Лины — молодой полицейский Том Сернер, приходит пора платить по счетам…
Бонусы: Интервью, на съемочной площадке

Качество: DVD9 R5
Формат: DVD-Video
Видео кодек: MPEG2
Аудио кодек: AC3 + DTS
Видео: PAL 16:9 (720x576(0.630)) MPEG Video,25,000 кадр/сек, 6527 Кбит/сек
Аудио #1: Russian (Dolby AC3, 6 ch) 256 Кбит/сек, 48,0 КГц
Аудио #2: Deutsch (Dolby AC3, 6 ch) 256 Кбит/сек, 48,0 КГц
Аудио #3: Russian (DTS, 6 ch) 755 Кбит/сек, 48,0 КГц



Title: O
Size: 6.61 Gb ( 6 931 974 KBytes ) - DVD-9
Enabled regions: 1, 2, 3, 4, 5, 6, 7, 8

VTS_01 :
Play Length: 00:00:10
Video: PAL 16:9 (720x576) VBR, Auto Pan&Scan, Auto Letterboxed

VTS_02 :
Play Length: 00:00:06
Video: PAL 16:9 (720x576) VBR, Auto Pan&Scan, Auto Letterboxed

VTS_03 :
Play Length: 01:35:40
Video: PAL 16:9 (720x576) VBR, Auto Pan&Scan, Auto Letterboxed
Audio:
Russian (Dolby AC3, 6 ch)
Russian (DTS, 6 ch)
Deutsch (Dolby AC3, 6 ch)
Subtitles:
Not specified
Not specified
Not specified

VTS_04 :
Play Length: 00:17:59
Video: PAL 16:9 (720x576) VBR, Auto Pan&Scan, Auto Letterboxed
Audio:
Not specified (Dolby AC3, 2 ch)

VTS_05 :
Play Length: 00:06:59
Video: PAL 16:9 (720x576) VBR, Auto Pan&Scan, Auto Letterboxed
Audio:
Not specified (Dolby AC3, 2 ch)
Общее
Полное имя : H:\Новинки 2011\Vkus.Nochy.2010.DVD9\VIDEO_TS\VTS_03_1.VOB
Формат : MPEG-PS
Размер файла : 1024 Мбайт
Продолжительность : 18 м.
Общий поток : 7952 Кбит/сек

Видео
Идентификатор : 224 (0xE0)
Формат : MPEG Video
Версия формата : Version 2
Профиль формата : Main@Main
Параметр BVOP формата : Да
Параметр матрицы формата : По умолчанию
Параметры GOP формата : M=3, N=12
Продолжительность : 18 м.
Вид битрейта : Переменный
Битрейт : 6527 Кбит/сек
Номинальный битрейт : 8300 Кбит/сек
Ширина : 720 пикс.
Высота : 576 пикс.
Соотношение сторон : 16:9
Частота кадров : 25,000 кадр/сек
Стандарт вещания : PAL
Цветовое пространство : YUV
Подвыборка цветности : 4:2:0
Битовая глубина : 8 бит
Тип развёртки : Чересстрочная
Порядок развёртки : Верхнее поле первое
Метод сжатия : С потерями
Бит/(Пиксели*Кадры) : 0.630
Размер потока : 840 Мбайт (82%)

Аудио #1
Идентификатор : 189 (0xBD)-128 (0x80)
Формат : AC-3
Формат/Информация : Audio Coding 3
Расширение режима : CM (complete main)
Режим смешивания : DVD-Video
Продолжительность : 17 м.
Вид битрейта : Постоянный
Битрейт : 256 Кбит/сек
Канал(ы) : 6 канала(ов)
Расположение каналов : Front: L C R, Side: L R, LFE
Частота : 48,0 КГц
Битовая глубина : 16 бит
Метод сжатия : С потерями
Размер потока : 33,0 Мбайт (3%)

Аудио #2
Идентификатор : 189 (0xBD)-130 (0x82)
Формат : AC-3
Формат/Информация : Audio Coding 3
Расширение режима : CM (complete main)
Режим смешивания : DVD-Video
Продолжительность : 17 м.
Вид битрейта : Постоянный
Битрейт : 256 Кбит/сек
Канал(ы) : 6 канала(ов)
Расположение каналов : Front: L C R, Side: L R, LFE
Частота : 48,0 КГц
Битовая глубина : 16 бит
Метод сжатия : С потерями
Размер потока : 33,0 Мбайт (3%)

Аудио #3
Идентификатор : 189 (0xBD)-137 (0x89)
Формат : DTS
Формат/Информация : Digital Theater Systems
Режим смешивания : DVD-Video
Продолжительность : 17 м.
Вид битрейта : Постоянный
Битрейт : 755 Кбит/сек
Канал(ы) : 6 канала(ов)
Расположение каналов : Front: L C R, Side: L R, LFE
Частота : 48,0 КГц
Битовая глубина : 16 бит
Метод сжатия : С потерями
Размер потока : 97,1 Мбайт (9%)










pb.wtf



Скачать Вкус ночи через торрент http://i20.fastpic.ru/big/2011/0506/80/0fa8603a4565172bc018be8b00a4bd80.jpg Скачать фильм Вкус ночи через торрент бесплантно в хорошем качестве Описание: Лина — трудный подросток, она не находит общего языка с родителями и сверстниками, промышляет мелким воровством. Однажды, ... 10 10 1
Info! Золотая раздача, скачанное не засчитывается.
Торрент: Зарегистрирован [2011-05-06 12:50] · скачан: 39 раз
Статус: √ проверено
Размер: 6.61 GB
Как cкачать? Как скачать Вкус ночи через торрент | UTorrent

28-11-2019 20:33  

Отключить всю рекламу на сайте

    Дорогой пользователь! Огромная просьба, поблагодарите релизера, оцените раздачу и оставьте свои комментарий, если Вы скачали Вкус ночи через торрент бесплатно! Внесите свою лепту в развитие PiratBit!
    Комментировать посты могут только пользователи прошедшие не сложную регистрацию
    Показать сообщения:    

    Вкус ночи через торрент
    Скачать бесплатно Вкус ночи
    Вкус ночи скачать торрент
    Вкус ночи смотреть онлайн
    Cкачать фильм Вкус ночи бесплатно
    Вкус ночи скачать торрент в хорошем качестве
    Вкус ночи смотреть онлайн бесплатно в хорошем качестве


    Вы не можете начинать темы
    Вы не можете отвечать на сообщения
    Вы не можете редактировать свои сообщения
    Вы не можете удалять свои сообщения
    Вы не можете голосовать в опросах
    Вы не можете прикреплять файлы к сообщениям
    Вы можете скачивать файлы