1 сезон

3 сезон

iTunes

1

Line

MVO

iTunes

13

1 сезон

RePack

30

Deluxe

pack

Лицензия

ВАЖНО

ИГРА 18+

pack

RePack

MK11

RePack

jed

RePack

fifa19

RePack

RDR2

RePack

NEED FOR SPEED™ PAYBACK

4 сезон

9 сезон

Бесстыжие 9 сезон

Все сериалы

все сериалы на PB.wtf

RePack

FAR CRY 5

Anonymous, доброй ночи, мы катастрофически не успеваем собрать деньги на оплату серверов, помогите нам пожалуйста 5,10,15р., для нас важна любая помощь . В качестве благодарности мы отключим Вам всю рекламу на сайте (укажите свой ник в строку Ваше имя)!

×
  
Magnet ссылка

Цунами: Выжить любой ценой / Za rasuto messeji: Umizaru (Эйитиро Хасуми / Eiichiro Hasumi) [2010, Япония, драма, DVD9] R5 «CP-Digital» pb.wtf

Цунами: Выжить любой ценой через торрент pb.wtf

Размер: 7.93 GB | Добавлен: 10 лет назад | Торрент скачан:25 раз
Скачать  

07-05-2011 22:56 Цунами: Выжить любой ценой Скачать торрент  


Цунами: Выжить любой ценой / Za rasuto messeji: Umizaru
Страна: Япония
Студия: Fuji Television Network Inc., Pony Canyon Enterprises (I), Robot Communications, Shogakukan Inc., Toho Company
Жанр: драма
Год выпуска: 2010
Мировая премьера: 18 сентября 2010
Дата выхода DVD: 21 апреля 2011, «CP-Digital»
Продолжительность: 02:09:55
Перевод: Профессиональный (многоголосый закадровый) [Лицензия]
Cубтитры: русские
Оригинальная аудиодорожка: японский
Режиссер: Эйитиро Хасуми / Eiichiro Hasumi
В ролях: Хидеаки Ито, Аи Като, Сохей Миура, Рюта Сато, Сони Парк, Гаку Хамада, Грегори Пекарь...
Описание: Человек и стихия — кто могущественней в этой схватке? Когда в эпицентре бушующего океана оказывается буровая станция, все спасательные силы — береговые и спецотряды — мобилизуются, чтобы спасти людей и оборудование. Но внезапный пожар на вышке ставит спасательную операцию под угрозу срыва. Сумеет ли группа спасателей справиться с огненной и морской стихией? Смогут ли они победить свой страх и выжить, не смотря ни на что, — любой ценой?
Бонусы: Каталог, Смотрите на DVD, Создатели и исполнители, Фотогалерея

Релиз группы:
Качество: DVD9 R5
Формат: DVD-Video
Видео кодек: MPEG2
Аудио кодек: AC3
Видео: PAL 16:9 (720x576(0.673)) MPEG Video,25,000 кадр/сек, 6974 Кбит/сек
Аудио: Russian / Japanese (Dolby AC3, 6 ch) 448 Кбит/сек, 48,0 КГц



Title: F
Size: 7.93 Gb ( 8 317 462 KBytes ) - DVD-9
Enabled regions: 1, 2, 3, 4, 5, 6, 7, 8

VTS_01 :
Play Length: 00:00:05
Video: PAL 4:3 (720x576) VBR

VTS_02 :
Play Length: 00:00:15
Video: PAL 16:9 (720x576) VBR, Auto Letterboxed
Audio:
Not specified (Dolby AC3, 6 ch)
Not specified (Dolby AC3, 6 ch)
Not specified (Dolby AC3, 6 ch)
Subtitles:
Not specified

VTS_03 :
Play Length: 00:01:53
Video: PAL 16:9 (720x576) VBR, Auto Letterboxed
Audio:
Not specified (Dolby AC3, 6 ch)
Not specified (Dolby AC3, 6 ch)
Subtitles:
Not specified

VTS_04 :
Play Length: 02:09:55
Video: PAL 16:9 (720x576) VBR, Auto Letterboxed
Audio:
Russian (Dolby AC3, 6 ch)
Japanese (Dolby AC3, 6 ch)
Subtitles:
Russian

VTS_05 :
Play Length: 00:01:57
Video: PAL 16:9 (720x576) VBR, Auto Letterboxed
Audio:
Not specified (Dolby AC3, 2 ch)
Subtitles:
Not specified

VTS_06 :
Play Length: 00:01:51
Video: PAL 16:9 (720x576) VBR, Auto Letterboxed
Audio:
Not specified (Dolby AC3, 2 ch)
Subtitles:
Not specified

VTS_07 :
Play Length: 00:02:27
Video: PAL 4:3 (720x576) VBR
Audio:
Not specified (Dolby AC3, 2 ch)
Subtitles:
Not specified

VTS_08 :
Play Length: 00:02:14
Video: PAL 16:9 (720x576) VBR, Auto Letterboxed
Audio:
Not specified (Dolby AC3, 2 ch)
Subtitles:
Not specified

VTS_09 :
Play Length: 00:01:53
Video: PAL 16:9 (720x576) VBR, Auto Letterboxed
Audio:
Not specified (Dolby AC3, 2 ch)
Subtitles:
Not specified

VTS_10 :
Play Length: 00:01:49
Video: PAL 16:9 (720x576) VBR, Auto Letterboxed
Audio:
Not specified (Dolby AC3, 2 ch)

Menu Video:
PAL 16:9 (720x576) VBR
Auto Pan&Scan, Auto Letterboxed
Menu English Language Unit :
Root Menu
Audio Menu
Chapter (PTT) Menu
Общее
Полное имя : F:\Новинки 2011\Tzunami.Vyzhit.ljuboj.tzenoj.2010.DVD9\VIDEO_TS\VTS_04_1.VOB
Формат : MPEG-PS
Размер файла : 1024 Мбайт
Продолжительность : 17 м.
Общий поток : 8030 Кбит/сек

Видео
Идентификатор : 224 (0xE0)
Формат : MPEG Video
Версия формата : Version 2
Профиль формата : Main@Main
Параметр BVOP формата : Да
Параметр матрицы формата : По умолчанию
Продолжительность : 17 м.
Вид битрейта : Переменный
Битрейт : 6974 Кбит/сек
Номинальный битрейт : 9000 Кбит/сек
Ширина : 720 пикс.
Высота : 576 пикс.
Соотношение сторон : 16:9
Частота кадров : 25,000 кадр/сек
Стандарт вещания : PAL
Цветовое пространство : YUV
Подвыборка цветности : 4:2:0
Битовая глубина : 8 бит
Тип развёртки : Прогрессивная
Метод сжатия : С потерями
Бит/(Пиксели*Кадры) : 0.673
Размер потока : 889 Мбайт (87%)

Аудио #1
Идентификатор : 189 (0xBD)-128 (0x80)
Формат : AC-3
Формат/Информация : Audio Coding 3
Расширение режима : CM (complete main)
Режим смешивания : DVD-Video
Продолжительность : 17 м.
Вид битрейта : Постоянный
Битрейт : 448 Кбит/сек
Канал(ы) : 6 канала(ов)
Расположение каналов : Front: L C R, Side: L R, LFE
Частота : 48,0 КГц
Битовая глубина : 16 бит
Метод сжатия : С потерями
Размер потока : 57,1 Мбайт (6%)

Аудио #2
Идентификатор : 189 (0xBD)-129 (0x81)
Формат : AC-3
Формат/Информация : Audio Coding 3
Расширение режима : CM (complete main)
Режим смешивания : DVD-Video
Продолжительность : 17 м.
Вид битрейта : Постоянный
Битрейт : 448 Кбит/сек
Канал(ы) : 6 канала(ов)
Расположение каналов : Front: L C R, Side: L R, LFE
Частота : 48,0 КГц
Битовая глубина : 16 бит
Метод сжатия : С потерями
Размер потока : 57,1 Мбайт (6%)

Текст
Идентификатор : 189 (0xBD)-32 (0x20)
Формат : RLE
Формат/Информация : Run-length encoding
Режим смешивания : DVD-Video










pb.wtf



Скачать Цунами: Выжить любой ценой через торрент http://i3.imageban.ru/out/2011/05/07/1019a87196cf42fc27a29e0ab42c32ae.jpg Скачать фильм Цунами: Выжить любой ценой через торрент бесплантно в хорошем качестве Описание: Человек и стихия — кто могущественней в этой схватке? Когда в эпицентре бушующего океана оказывается буровая станция, все ... 4.8 10 5
Info! Золотая раздача, скачанное не засчитывается.
Торрент: Зарегистрирован [2011-05-07 22:56] · скачан: 25 раз
Статус: √ проверено
Размер: 7.93 GB
Как cкачать? Как скачать Цунами: Выжить любой ценой через торрент | UTorrent

28-11-2019 20:33  

Отключить всю рекламу на сайте

    Дорогой пользователь! Огромная просьба, поблагодарите релизера, оцените раздачу и оставьте свои комментарий, если Вы скачали Цунами: Выжить любой ценой через торрент бесплатно! Внесите свою лепту в развитие PiratBit!
    Комментировать посты могут только пользователи прошедшие не сложную регистрацию
    Показать сообщения:    

    Цунами: Выжить любой ценой через торрент
    Скачать бесплатно Цунами: Выжить любой ценой
    Цунами: Выжить любой ценой скачать торрент
    Цунами: Выжить любой ценой смотреть онлайн
    Cкачать фильм Цунами: Выжить любой ценой бесплатно
    Цунами: Выжить любой ценой скачать торрент в хорошем качестве
    Цунами: Выжить любой ценой смотреть онлайн бесплатно в хорошем качестве


    Вы не можете начинать темы
    Вы не можете отвечать на сообщения
    Вы не можете редактировать свои сообщения
    Вы не можете удалять свои сообщения
    Вы не можете голосовать в опросах
    Вы не можете прикреплять файлы к сообщениям
    Вы можете скачивать файлы