1 сезон

3 сезон

iTunes

1

Line

MVO

iTunes

13

1 сезон

RePack

30

Deluxe

pack

Лицензия

ВАЖНО

ИГРА 18+

pack

RePack

MK11

RePack

jed

RePack

fifa19

RePack

RDR2

RePack

NEED FOR SPEED™ PAYBACK

4 сезон

9 сезон

Бесстыжие 9 сезон

Все сериалы

все сериалы на PB.wtf

RePack

FAR CRY 5

Anonymous, доброй ночи, мы катастрофически не успеваем собрать деньги на оплату серверов, помогите нам пожалуйста 5,10,15р., для нас важна любая помощь . В качестве благодарности мы отключим Вам всю рекламу на сайте (укажите свой ник в строку Ваше имя)!

×
  
Magnet ссылка

Перекресток смерти / True Justice (Вейн Роуз, Киони Ваксман, Лауро Чартрэнд / Wayne Rose, Keoni Waxman, Lauro Chartrand) [2011, США, Канада, боевик, триллер, драма, DVD5] R5 «New Dream media» pb.wtf

Перекресток смерти через торрент pb.wtf

Размер: 3.74 GB | Добавлен: 10 лет назад | Торрент скачан:71 раз
Скачать  

07-05-2011 23:18 Перекресток смерти Скачать торрент  


Перекресток смерти / True Justice
Страна: США, Канада
Студия: Voltage Pictures
Жанр: боевик, триллер, драма
Год выпуска: 2011
Дата выхода DVD: 19 мая 2011, «New Dream media»
Продолжительность: 01:26:34
Перевод: Профессиональный (многоголосый закадровый) [Лицензия]
Cубтитры: нет
Оригинальная аудиодорожка: английский
Режиссер: Вейн Роуз, Киони Ваксман, Лауро Чартрэнд / Wayne Rose, Keoni Waxman, Lauro Chartrand
В ролях: Стивен Сигал, Алекс Маллари мл., Джоуз Исо Пена, Стюарт Уильям Биг Слипс, Кайл Кэсси, Майкл Эклунд, Марина Ева, Питер Грэхэм-Годрэу, Сара Линд, Джим Торберн...
Описание: Быть копом нелегко, и в этом не раз убеждался бывалый детектив Элайя Кейн, повидавший на своём веку немало драк, перестрелок, локальных войн и жестоких схваток. В этом он уверяет и свой отряд полицейских-коллег и напарников, большинство из которых являются совсем зелёными новичками. Однако, жизнь на улицах города является столь же непростой, сколь и опасной, поэтому блюстители закона и охранники правопорядка вынуждены день за днём пресекать правонарушения и предотвращать преступления, ловить бандитов и арестовывать наркоторговцев.
Опытный Элайя во всём помогает и способствует юным законникам, а также вразумляет и наставляет их на путь праведный. Постепенно улицы очищаются от маргинальных нечистот и презирающих закон лиц, но всё новые проблемы и неприятности дают знать, что южному правосудию не быть невостребованным. Элайя Кейн и его верная команда помощников ни на шаг не отступят от своего, продолжая лоббировать букву закона повсеместно и там, где, кажется, её не уважают и вовсе не признают. Они непременно добьются, чтобы все и каждый чтили, понимали и принимали Закон в его истинном проявлении. Ведь это та самая Южная справедливость, всегда одерживающая верх и постоянно побеждающая, в чём сомневаться практически бесполезно…

Бонусы: нет

Релиз группы:
Качество: DVD5 R5
Формат: DVD-Video
Видео кодек: MPEG2
Аудио кодек: AC3
Видео: PAL 16:9 (720x576(0.478)) MPEG Video,25,000 кадр/сек, 4960 Кбит/сек
Аудио: Russian / English (Dolby AC3, 6 ch) 448 Кбит/сек, 48,0 КГц



Title: F
Size: 3.74 Gb ( 3 924 534 KBytes ) - DVD-5
Enabled regions: 1, 2, 3, 4, 5, 6, 7, 8

VTS_01 :
Play Length: 01:26:34
Video: PAL 16:9 (720x576) VBR, Auto Letterboxed
Audio:
Russian (Dolby AC3, 6 ch)
English (Dolby AC3, 6 ch)

VTS_02 :
Play Length: 00:00:21
Video: PAL 16:9 (720x576) VBR, Auto Letterboxed
Audio:
Russian (Dolby AC3, 2 ch)

Menu Video:
PAL 4:3 (720x576) VBR
Menu Subtitles:
Not specified
Menu English Language Unit :
Root Menu
Общее
Полное имя : F:\Новинки 2011\Perekrestok.smerti.2011.DVD5\VIDEO_TS\VTS_01_1.VOB
Формат : MPEG-PS
Размер файла : 1024 Мбайт
Продолжительность : 23 м.
Общий поток : 5975 Кбит/сек

Видео
Идентификатор : 224 (0xE0)
Формат : MPEG Video
Версия формата : Version 2
Профиль формата : Main@Main
Параметр BVOP формата : Да
Параметр матрицы формата : По умолчанию
Параметры GOP формата : M=3, N=15
Продолжительность : 23 м.
Вид битрейта : Переменный
Битрейт : 4960 Кбит/сек
Номинальный битрейт : 8000 Кбит/сек
Ширина : 720 пикс.
Высота : 576 пикс.
Соотношение сторон : 16:9
Частота кадров : 25,000 кадр/сек
Стандарт вещания : PAL
Цветовое пространство : YUV
Подвыборка цветности : 4:2:0
Битовая глубина : 8 бит
Тип развёртки : Чересстрочная
Порядок развёртки : Верхнее поле первое
Метод сжатия : С потерями
Бит/(Пиксели*Кадры) : 0.478
Размер потока : 850 Мбайт (83%)

Аудио #1
Идентификатор : 189 (0xBD)-128 (0x80)
Формат : AC-3
Формат/Информация : Audio Coding 3
Расширение режима : CM (complete main)
Режим смешивания : DVD-Video
Продолжительность : 23 м.
Вид битрейта : Постоянный
Битрейт : 448 Кбит/сек
Канал(ы) : 6 канала(ов)
Расположение каналов : Front: L C R, Side: L R, LFE
Частота : 48,0 КГц
Битовая глубина : 16 бит
Метод сжатия : С потерями
Задержка видео : -80 мс.
Размер потока : 76,8 Мбайт (7%)

Аудио #2
Идентификатор : 189 (0xBD)-129 (0x81)
Формат : AC-3
Формат/Информация : Audio Coding 3
Расширение режима : CM (complete main)
Режим смешивания : DVD-Video
Продолжительность : 23 м.
Вид битрейта : Постоянный
Битрейт : 448 Кбит/сек
Канал(ы) : 6 канала(ов)
Расположение каналов : Front: L C R, Side: L R, LFE
Частота : 48,0 КГц
Битовая глубина : 16 бит
Метод сжатия : С потерями
Задержка видео : -80 мс.
Размер потока : 76,8 Мбайт (7%)










pb.wtf



Скачать Перекресток смерти через торрент http://i1.imageban.ru/out/2011/05/07/4e0e941908f91fb20dccd7a7e8f9344c.jpg Скачать фильм Перекресток смерти через торрент бесплантно в хорошем качестве Описание: Быть копом нелегко, и в этом не раз убеждался бывалый детектив Элайя Кейн, повидавший на своём веку немало драк, перестрелок, ... 4.2 10 5
Info! Золотая раздача, скачанное не засчитывается.
Торрент: Зарегистрирован [2011-05-07 23:18] · скачан: 71 раз
Статус: √ проверено
Размер: 3.74 GB
Как cкачать? Как скачать Перекресток смерти через торрент | UTorrent

28-11-2019 20:33  

Отключить всю рекламу на сайте

    Дорогой пользователь! Огромная просьба, поблагодарите релизера, оцените раздачу и оставьте свои комментарий, если Вы скачали Перекресток смерти через торрент бесплатно! Внесите свою лепту в развитие PiratBit!
    Комментировать посты могут только пользователи прошедшие не сложную регистрацию
    Показать сообщения:    

    Перекресток смерти через торрент
    Скачать бесплатно Перекресток смерти
    Перекресток смерти скачать торрент
    Перекресток смерти смотреть онлайн
    Cкачать фильм Перекресток смерти бесплатно
    Перекресток смерти скачать торрент в хорошем качестве
    Перекресток смерти смотреть онлайн бесплатно в хорошем качестве


    Вы не можете начинать темы
    Вы не можете отвечать на сообщения
    Вы не можете редактировать свои сообщения
    Вы не можете удалять свои сообщения
    Вы не можете голосовать в опросах
    Вы не можете прикреплять файлы к сообщениям
    Вы можете скачивать файлы