1 сезон

1 сезон

iTunes

1

КиноПоиск HD

Кинопоиск HD

iTunes

13

1 сезон

RePack

30

Новинка

ВАЖНО

ИГРА 18+

pack

RePack

MK11
pack

Легкие деньги

RePack

jed

RePack

fifa19

RePack

RDR2

RePack

NEED FOR SPEED™ PAYBACK

4 сезон

9 сезон

Бесстыжие 9 сезон

Все сериалы

все сериалы на PB.wtf

RePack

FAR CRY 5
  
Magnet ссылка

11:11: У Дьявола новое число / 11:11 ( Майкл Бафаро / Micheal Bafaro) [2004 г., ужасы, триллер, DVDRip] pb.wtf

11:11: У Дьявола новое число через торрент pb.wtf

Размер: 1.38 GB | Добавлен: 9 лет назад | Торрент скачан:68 раз
Скачать  

10-05-2011 11:04 11:11: У Дьявола новое число Скачать торрент  

11:11: У Дьявола новое число
11:11




Год выпуска: 2004
Страна: Канада
Жанр: ужасы, триллер
Продолжительность: 01:31:51
Перевод: Профессиональный (многоголосый)

Режиссер: Майкл Бафаро / Micheal Bafaro

В ролях: Лаура Меннелл, Пол Дзенкив, Кристи Уилл, Кристина Коуплэнд, Кэтти Уэзлак, Крис Харрисон, Майкл Ст. Джон Смит, Мэтт Беллефло, Эми Адамсон, Лаура Джэйн МакДональд, Джейн Соерби, Гленн Эннис

Описание: 11 января 1991 г. мир потрясла серия странных убийств. 7-летняя девочка подстрелила маньяка, хладнокровно расправившегося с ее родителями. Через 18 лет взрослую Сару преследуют видения матери и загадочное число 11:11, выведенное кровью рядом с ее телом. Сара живет в постоянном кошмаре до тех пор, пока не узнает из газет о похожих убийствах. Раздираемая страхом и любопытством, Сара берется разгадать тайну числа 11:11 и прекратить поток жертв…

Семпл

Качество: DVDRip
Формат: AVI
Видео кодек: XviD
Аудио кодек: MP3
Видео: XviD, 2 013 Kbps, 720 x 512 pixels, 25.000 fps, Bits/(Pixel*Frame) : 0.218
Аудио: MP3 , 128 Kbps, 2 channels, 48.0 KHz
Complete name 11.11. У Дьявола Новое Число (11.11) [2004 г., Ужасы, Триллер].avi
Format : AVI
Format/Info : Audio Video Interleave
File size : 1.38 GiB
Duration : 1h 31mn
Overall bit rate : 2 150 Kbps
Writing application : FairUse Wizard - http://fairusewizard.com
Writing library : The best and REALLY easy backup tool

Video
ID : 0
Format : MPEG-4 Visual
Format profile : Advanced Simple@L5
Format settings, BVOP : Yes
Format settings, QPel : No
Format settings, GMC : No warppoints
Format settings, Matrix : Default (H.263)
Muxing mode : Packed bitstream
Codec ID : XVID
Codec ID/Hint : XviD
Duration : 1h 31mn
Bit rate : 2 013 Kbps
Width : 720 pixels
Height : 512 pixels
Display aspect ratio : 1.406
Frame rate : 25.000 fps
Color space : YUV
Chroma subsampling : 4:2:0
Bit depth : 8 bits
Scan type : Progressive
Bits/(Pixel*Frame) : 0.218
Stream size : 1.29 GiB (94%)
Writing library : XviD 1.2.0.dev47 (UTC 2006-11-01)

Audio
ID : 1
Format : MPEG Audio
Format version : Version 1
Format profile : Layer 3
Mode : Joint stereo
Mode extension : MS Stereo
Codec ID : 55
Codec ID/Hint : MP3
Duration : 1h 31mn
Bit rate mode : Constant
Bit rate : 128 Kbps
Channel(s) : 2 channels
Sampling rate : 48.0 KHz
Stream size : 84.1 MiB (6%)
Alignment : Aligned on interleaves
Interleave, duration : 40 ms (1.00 video frame)
Interleave, preload duration : 504 ms
Writing library : LAME3.97b
Encoding settings : -m j -V 4 -q 2 -lowpass 17 -b 128
pb.wtf



Скачать 11:11: У Дьявола новое число через торрент http://img11.imageshack.us/img11/3628/5555555x.png Скачать фильм 11:11: У Дьявола новое число через торрент бесплантно в хорошем качестве Описание: 11 января 1991 г. мир потрясла серия странных убийств. 7-летняя девочка подстрелила маньяка, хладнокровно расправившегося с ее ... 4.4 10 7
Info! Золотая раздача, скачанное не засчитывается.
Торрент: Зарегистрирован [2011-05-10 11:04] · скачан: 68 раз
Статус: √ проверено
Размер: 1.38 GB
Как cкачать? Как скачать 11:11: У Дьявола новое число через торрент | UTorrent



Последний раз редактировалось: smaster (2011-08-05 19:31), всего редактировалось 1 раз

28-11-2019 20:33  

Отключить всю рекламу на сайте

05-08-2011 17:53 11:11: У Дьявола новое число Скачать торрент  

Спасибо! Но фильм слабоватый. pb.wtf



    Дорогой пользователь! Огромная просьба, поблагодарите релизера, оцените раздачу и оставьте свои комментарий, если Вы скачали 11:11: У Дьявола новое число через торрент бесплатно! Внесите свою лепту в развитие PiratBit!
    Комментировать посты могут только пользователи прошедшие не сложную регистрацию
    Показать сообщения:    

    11:11: У Дьявола новое число через торрент
    Скачать бесплатно 11:11: У Дьявола новое число
    11:11: У Дьявола новое число скачать торрент
    11:11: У Дьявола новое число смотреть онлайн
    Cкачать фильм 11:11: У Дьявола новое число бесплатно
    11:11: У Дьявола новое число скачать торрент в хорошем качестве
    11:11: У Дьявола новое число смотреть онлайн бесплатно в хорошем качестве


    Вы не можете начинать темы
    Вы не можете отвечать на сообщения
    Вы не можете редактировать свои сообщения
    Вы не можете удалять свои сообщения
    Вы не можете голосовать в опросах
    Вы не можете прикреплять файлы к сообщениям
    Вы можете скачивать файлы