1 сезон

3 сезон

iTunes

1

Line

MVO

iTunes

13

1 сезон

RePack

30

Deluxe

pack

Лицензия

ВАЖНО

ИГРА 18+

pack

RePack

MK11

RePack

jed

RePack

fifa19

RePack

RDR2

RePack

NEED FOR SPEED™ PAYBACK

4 сезон

9 сезон

Бесстыжие 9 сезон

Все сериалы

все сериалы на PB.wtf

RePack

FAR CRY 5

Anonymous, добрый вечер, мы катастрофически не успеваем собрать деньги на оплату серверов, помогите нам пожалуйста 5,10,15р., для нас важна любая помощь . В качестве благодарности мы отключим Вам всю рекламу на сайте (укажите свой ник в строку Ваше имя)!

×
  
Magnet ссылка

Как выйти замуж за миллиардера / Chalet Girl (Фил Трэйл / Phil Traill) [2011, Германия, Великобритания, Австрия, мелодрама, комедия, DVD9] R5 «CP-Digital» pb.wtf

Как выйти замуж за миллиардера через торрент pb.wtf

Размер: 6.64 GB | Добавлен: 10 лет назад | Торрент скачан:56 раз
Скачать  

11-05-2011 20:30 Как выйти замуж за миллиардера Скачать торрент  


Как выйти замуж за миллиардера / Chalet Girl
«История золушки в Альпах»
Страна: Германия, Великобритания, Австрия
Студия: CrossDay Productions Ltd., Kaleidoscope Films, Neue Bioskop Film, Prescience
Жанр: мелодрама, комедия
Год выпуска: 2011
Мировая премьера: 17 февраля 2011
Российская премьера: 7 апреля 2011, «Каскад», «Премиум Фильм»
Дата выхода DVD: 12 мая 2011, «CP-Digital»
Продолжительность: 01:32:37
Перевод: Профессиональный (дублированный) [Лицензия]
Cубтитры: русские
Оригинальная аудиодорожка: английский
Режиссер: Фил Трэйл / Phil Traill
В ролях: Фелисити Джонс, Эд Вествик, Билл Найи, Брук Шилдс, Тэмсин Эгертон, Билл Бэйли, София Буш, Грегор Блоеб, Адам Боусдукс, Николас Браун
Описание: Ким, юная скромница английского городка, получает работу на фешенебельном горнолыжном курорте в Альпах. Ей сложно привыкнуть к новому миру роскоши, раскованности и снежных рекордов. Но вскоре Ким обнаруживает в себе талант к спуску на сноуборде и, кажется, влюбляется в симпатичного сына владельца курорта, отдыхающего здесь с подругой… Сможет ли Ким пробиться на Кубок Мира по сноуборду с ценным призом для победительницы? И как ей понять, не морочит ли «золотой мальчик» ей голову?
Бонусы: Трейлер, каталог, смотрите на DVD, создатели и исполнители, фотогалерея

Релиз группы:
Качество: DVD9 R5
Формат: DVD-Video
Видео кодек: MPEG2
Аудио кодек: AC3 + DTS
Видео: PAL 16:9 (720x576(0.673)) MPEG Video,25,000 кадр/сек, 6976 Кбит/сек
Аудио #1: Russian (Dolby AC3, 6 ch) 448 Кбит/сек, 48,0 КГц
Аудио #2: English (Dolby AC3, 6 ch) 448 Кбит/сек, 48,0 КГц
Аудио #3: Russian (DTS, 5 ch) 755 Кбит/сек, 48,0 КГц



Title: Мой диск
Size: 6.64 Gb ( 6 965 986 KBytes ) - DVD-9
Enabled regions: 1, 2, 3, 4, 5, 6, 7, 8

VTS_01 :
Play Length: 00:00:05
Video: PAL 4:3 (720x576) VBR
Subtitles:
English
English

VTS_02 :
Play Length: 00:00:15
Video: PAL 16:9 (720x576) VBR, Auto Letterboxed
Audio:
Not specified (Dolby AC3, 6 ch)
Not specified (Dolby AC3, 6 ch)
Not specified (Dolby AC3, 6 ch)
Subtitles:
Not specified

VTS_03 :
Play Length: 01:32:37
Video: PAL 16:9 (720x576) VBR, Auto Letterboxed
Audio:
Russian (Dolby AC3, 6 ch)
English (Dolby AC3, 6 ch)
Russian (DTS, 5 ch)
Subtitles:
Russian

VTS_04 :
Play Length: 00:02:00
Video: PAL 16:9 (720x576) VBR, Auto Letterboxed
Audio:
Not specified (Dolby AC3, 2 ch)
Subtitles:
Not specified

VTS_05 :
Play Length: 00:01:51
Video: PAL 16:9 (720x576) VBR, Auto Letterboxed
Audio:
Not specified (Dolby AC3, 2 ch)
Subtitles:
Not specified

VTS_06 :
Play Length: 00:02:26
Video: PAL 16:9 (720x576) VBR, Auto Letterboxed
Audio:
Not specified (Dolby AC3, 2 ch)
Subtitles:
Not specified

VTS_07 :
Play Length: 00:02:14
Video: PAL 16:9 (720x576) VBR, Auto Letterboxed
Audio:
Not specified (Dolby AC3, 2 ch)
Subtitles:
Not specified

VTS_08 :
Play Length: 00:02:27
Video: PAL 4:3 (720x576) VBR
Audio:
Not specified (Dolby AC3, 2 ch)
Subtitles:
Not specified

VTS_09 :
Play Length: 00:01:53
Video: PAL 16:9 (720x576) VBR, Auto Letterboxed
Audio:
Not specified (Dolby AC3, 2 ch)
Subtitles:
Not specified

VTS_10 :
Play Length: 00:05:25
Video: PAL 16:9 (720x576) VBR, Auto Letterboxed
Audio:
Not specified (Dolby AC3, 2 ch)

VTS_11 :
Play Length: 00:01:53
Video: PAL 16:9 (720x576) VBR, Auto Letterboxed
Audio:
Not specified (Dolby AC3, 6 ch)
Subtitles:
Not specified
Общее
Полное имя : F:\Новинки 2011\Kak.viiti.zamuzh.za.millionera.2011.DVD9\VIDEO_TS\VTS_03_1.VOB
Формат : MPEG-PS
Размер файла : 1024 Мбайт
Продолжительность : 16 м.
Общий поток : 8802 Кбит/сек

Видео
Идентификатор : 224 (0xE0)
Формат : MPEG Video
Версия формата : Version 2
Профиль формата : Main@Main
Параметр BVOP формата : Да
Параметр матрицы формата : По умолчанию
Продолжительность : 16 м.
Вид битрейта : Переменный
Битрейт : 6976 Кбит/сек
Номинальный битрейт : 8000 Кбит/сек
Ширина : 720 пикс.
Высота : 576 пикс.
Соотношение сторон : 16:9
Частота кадров : 25,000 кадр/сек
Стандарт вещания : PAL
Цветовое пространство : YUV
Подвыборка цветности : 4:2:0
Битовая глубина : 8 бит
Тип развёртки : Прогрессивная
Метод сжатия : С потерями
Бит/(Пиксели*Кадры) : 0.673
Размер потока : 811 Мбайт (79%)

Аудио #1
Идентификатор : 189 (0xBD)-128 (0x80)
Формат : AC-3
Формат/Информация : Audio Coding 3
Расширение режима : CM (complete main)
Режим смешивания : DVD-Video
Продолжительность : 16 м.
Вид битрейта : Постоянный
Битрейт : 448 Кбит/сек
Канал(ы) : 6 канала(ов)
Расположение каналов : Front: L C R, Side: L R, LFE
Частота : 48,0 КГц
Битовая глубина : 16 бит
Метод сжатия : С потерями
Размер потока : 52,1 Мбайт (5%)

Аудио #2
Идентификатор : 189 (0xBD)-129 (0x81)
Формат : AC-3
Формат/Информация : Audio Coding 3
Расширение режима : CM (complete main)
Режим смешивания : DVD-Video
Продолжительность : 16 м.
Вид битрейта : Постоянный
Битрейт : 448 Кбит/сек
Канал(ы) : 6 канала(ов)
Расположение каналов : Front: L C R, Side: L R, LFE
Частота : 48,0 КГц
Битовая глубина : 16 бит
Метод сжатия : С потерями
Размер потока : 52,1 Мбайт (5%)

Аудио #3
Идентификатор : 189 (0xBD)-138 (0x8A)
Формат : DTS
Формат/Информация : Digital Theater Systems
Режим смешивания : DVD-Video
Продолжительность : 16 м.
Вид битрейта : Постоянный
Битрейт : 755 Кбит/сек
Канал(ы) : 6 канала(ов)
Расположение каналов : Front: L C R, Side: L R, LFE
Частота : 48,0 КГц
Битовая глубина : 24 бит
Метод сжатия : С потерями
Размер потока : 87,7 Мбайт (9%)

Текст
Идентификатор : 189 (0xBD)-32 (0x20)
Формат : RLE
Формат/Информация : Run-length encoding
Режим смешивания : DVD-Video










pb.wtf



Скачать Как выйти замуж за миллиардера через торрент http://i1.imageban.ru/out/2011/05/11/3bcf4b7555889c1a500e9d634d6e96c5.jpg Скачать фильм Как выйти замуж за миллиардера через торрент бесплантно в хорошем качестве Описание: Ким, юная скромница английского городка, получает работу на фешенебельном горнолыжном курорте в Альпах. Ей сложно привыкнуть к ... 10 10 1
Info! Золотая раздача, скачанное не засчитывается.
Торрент: Зарегистрирован [2011-05-11 20:30] · скачан: 56 раз
Статус: √ проверено
Размер: 6.64 GB
Как cкачать? Как скачать Как выйти замуж за миллиардера через торрент | UTorrent

28-11-2019 20:33  

Отключить всю рекламу на сайте

    Дорогой пользователь! Огромная просьба, поблагодарите релизера, оцените раздачу и оставьте свои комментарий, если Вы скачали Как выйти замуж за миллиардера через торрент бесплатно! Внесите свою лепту в развитие PiratBit!
    Комментировать посты могут только пользователи прошедшие не сложную регистрацию
    Показать сообщения:    

    Как выйти замуж за миллиардера через торрент
    Скачать бесплатно Как выйти замуж за миллиардера
    Как выйти замуж за миллиардера скачать торрент
    Как выйти замуж за миллиардера смотреть онлайн
    Cкачать фильм Как выйти замуж за миллиардера бесплатно
    Как выйти замуж за миллиардера скачать торрент в хорошем качестве
    Как выйти замуж за миллиардера смотреть онлайн бесплатно в хорошем качестве


    Вы не можете начинать темы
    Вы не можете отвечать на сообщения
    Вы не можете редактировать свои сообщения
    Вы не можете удалять свои сообщения
    Вы не можете голосовать в опросах
    Вы не можете прикреплять файлы к сообщениям
    Вы можете скачивать файлы