2 сезон

iTunes

MVO

1

2 сезон

iTunes

iTunes

1 сезон

RePack

30

Ultimate

ВАЖНО

ИГРА 18+

pack

RePack

MK11
pack

Легкие деньги

RePack

jed

RePack

fifa19

RePack

RDR2

RePack

NEED FOR SPEED™ PAYBACK

4 сезон

9 сезон

Бесстыжие 9 сезон

Все сериалы

все сериалы на PB.wtf

RePack

FAR CRY 5

Anonymous, добрый вечер, мы не успеваем собрать деньги на оплату серверов за декабрь и январь, помогите нам пожалуйста в это трудное время. В качестве благодарности мы отключим Вам всю рекламу на сайте (укажите свой ник в строку Ваше имя)!

×
  
Magnet ссылка

Великий рифт: Дикое сердце Африки (3 серии из 3) / Great Rift: Africa's Wild Heart (Хью Куорши / Hugh Quarshie) [2010 г., документальный, BDRip (1080p)] pb.wtf

Великий рифт: Дикое сердце Африки через торрент pb.wtf

Размер: 14.17 GB | Добавлен: 9 лет 8 мес. назад | Торрент скачан:156 раз
Скачать  

14-05-2011 14:58 Великий рифт: Дикое сердце Африки Скачать торрент  

Великий рифт: Дикое сердце Африки (3 серии из 3) / Great Rift: Africa's Wild Heart

Год выпуска: 2010
Страна: Великобритания, BBC, Animal Planet
Жанр: документальный
Продолжительность: 00:58:48 + 00:59:00 + 00:58:21
Перевод: Любительский (одноголосый)

Режиссер: Хью Куорши / Hugh Quarshie

Описание: Трёхсерийный фильм BBC в области естествознания, показывающий ландшафты и дикую природу Восточно-Африканской Великой Рифтовой Долины. Поддерживая многообразие дикой жизни, фауны и различных сред обитания, Рифтовая Долина стала основой для некоторых очень важных экосистем Африки. В фильме показано формирование долины 30 миллионов лет назад, особенно выделяя многие существа, развивавшиеся и приспосабливавшиеся к жизни в этом уникальном месте.

В фильм включены серии: "Огонь", "Вода и "Трава".

Доп. информация: Отдельное спасибо Монаx.

Качество: BDRip (1080p)
Формат: MKV
Видео кодек: MPEG4-AVC
Аудио кодек: DTS
Видео: MPEG-4 AVC, ~ 9517 Кбит/с, 1920x1080
Аудио: Русский (DTS, 3 ch, 768 Кбит/с), английский (DTS, 2 ch, 768 Кбит/с)
Субтитры: Русские, английские







General
Complete name : D:\Torrent\Velikiy.Rift.dikoe.serdce.Afriki.(3.serij.iz.3).2010.x264.BDRip.(1080p)\Velikiy.Rift.dikoe.serdce.Afriki.(1.seriya.iz.3).ogon.2010.x264.BDRip.(1080p).mkv
Format : Matroska
File size : 4.32 GiB
Duration : 58mn 48s
Overall bit rate : 10.5 Mbps
Encoded date : UTC 2010-05-13 16:34:06
Writing application : mkvmerge v2.3.0 ('Freak U') built on Sep 8 2008 18:32:16
Writing library : libebml v0.7.7 + libmatroska v0.8.1

Video
ID : 1
Format : AVC
Format/Info : Advanced Video Codec
Format profile : High@L4.1
Format settings, CABAC : Yes
Format settings, ReFrames : 3 frames
Format settings, GOP : N=1
Muxing mode : Container profile=Unknown@4.1
Codec ID : V_MPEG4/ISO/AVC
Duration : 58mn 48s
Bit rate : 9 000 Kbps
Width : 1 920 pixels
Height : 1 080 pixels
Display aspect ratio : 16:9
Frame rate : 25.000 fps
Color space : YUV
Chroma subsampling : 4:2:0
Bit depth : 8 bits
Scan type : Progressive
Bits/(Pixel*Frame) : 0.174
Stream size : 3.61 GiB (84%)
Title : Velikiy.Rift.dikoe.serdce.Afriki.(1.seriya.iz.3).ogon.2010.x264.BDRip.(1080p)
Writing library : x264 core 88 r1462 7fcffde
Encoding settings : cabac=1 / ref=4 / deblock=1:-2:-2 / analyse=0x3:0 / me=esa / subme=7 / psy=1 / psy_rd=1.00:0.00 / mixed_ref=1 / me_range=16 / chroma_me=1 / trellis=2 / 8x8dct=1 / cqm=0 / deadzone=21,11 / fast_pskip=0 / chroma_qp_offset=-2 / threads=3 / sliced_threads=0 / nr=0 / decimate=1 / mbaff=0 / constrained_intra=0 / bframes=7 / b_pyramid=1 / b_adapt=2 / b_bias=0 / direct=3 / wpredb=1 / wpredp=2 / keyint=250 / keyint_min=25 / scenecut=40 / intra_refresh=0 / rc_lookahead=40 / rc=2pass / mbtree=1 / bitrate=9000 / ratetol=1.0 / qcomp=0.60 / qpmin=10 / qpmax=51 / qpstep=4 / cplxblur=20.0 / qblur=0.5 / vbv_maxrate=50000 / vbv_bufsize=50000 / ip_ratio=1.40 / aq=1:0.80
Language : Russian

Audio #1
ID : 2
Format : DTS
Format/Info : Digital Theater Systems
Codec ID : A_DTS
Duration : 58mn 48s
Bit rate mode : Constant
Bit rate : 755 Kbps
Channel(s) : 3 channels
Channel positions : Front: L C R
Sampling rate : 48.0 KHz
Bit depth : 24 bits
Stream size : 317 MiB (7%)
Title : Russian
Language : Russian

Audio #2
ID : 3
Format : DTS
Format/Info : Digital Theater Systems
Codec ID : A_DTS
Duration : 58mn 48s
Bit rate mode : Constant
Bit rate : 755 Kbps
Channel(s) : 2 channels
Channel positions : Front: L R
Sampling rate : 48.0 KHz
Bit depth : 24 bits
Stream size : 317 MiB (7%)
Title : English
Language : English

Text #1
ID : 4
Format : UTF-8
Codec ID : S_TEXT/UTF8
Codec ID/Info : UTF-8 Plain Text
Title : Russian
Language : Russian

Text #2
ID : 5
Format : UTF-8
Codec ID : S_TEXT/UTF8
Codec ID/Info : UTF-8 Plain Text
Title : English
Language : English

Menu
00:00:00.000 : en:00:00:00.000
00:10:11.840 : en:00:10:11.840
00:17:37.200 : en:00:17:37.200
00:22:37.920 : en:00:22:37.920
00:31:16.040 : en:00:31:16.040
00:39:20.920 : en:00:39:20.920
00:47:59.680 : en:00:47:59.680
pb.wtf



Скачать Великий рифт: Дикое сердце Африки через торрент http://i11.fastpic.ru/big/2011/0514/35/73ec64303b8c19cd105dd682af58bf35.jpg Скачать фильм Великий рифт: Дикое сердце Африки через торрент бесплантно в хорошем качестве Описание: Трёхсерийный фильм BBC в области естествознания, показывающий ландшафты и дикую природу Восточно-Африканской Великой Рифтовой ... 5 10 4
Info! Золотая раздача, скачанное не засчитывается.
Торрент: Зарегистрирован [2011-05-14 14:58] · скачан: 156 раз
Статус: √ проверено
Размер: 14.17 GB
Как cкачать? Как скачать Великий рифт: Дикое сердце Африки через торрент | UTorrent

% Раздел Тема Автор DL S | L
BBC [ 2.57 GB ] Великий рифт: Дикое сердце Африки / Great Rift: Africa's Wild Heart [2010 документальный HDRip] feldeger Скачать
1 | 0

28-11-2019 20:33  

Отключить всю рекламу на сайте

14-05-2011 17:36 Великий рифт: Дикое сердце Африки Скачать торрент  

Мне очень понравилось.
Для кого размер большой, через день-два сделаю рип (примерно на 2, 5 гига)pb.wtf



14-05-2011 18:01 Великий рифт: Дикое сердце Африки Скачать торрент  

feldeger
Как красиво. Если качать, то только в таком качестве!pb.wtf



14-05-2011 18:08 Великий рифт: Дикое сердце Африки Скачать торрент  

-=Cherry=- писал(а):

Если качать, то только в таком качестве!

трудно не согласиться pb.wtf



21-03-2012 13:54 Великий рифт: Дикое сердце Африки Скачать торрент  

фильм супер..очень красиво!pb.wtf



    Дорогой пользователь! Огромная просьба, поблагодарите релизера, оцените раздачу и оставьте свои комментарий, если Вы скачали Великий рифт: Дикое сердце Африки через торрент бесплатно! Внесите свою лепту в развитие PiratBit!
    Комментировать посты могут только пользователи прошедшие не сложную регистрацию
    Показать сообщения:    

    Великий рифт: Дикое сердце Африки через торрент
    Скачать бесплатно Великий рифт: Дикое сердце Африки
    Великий рифт: Дикое сердце Африки скачать торрент
    Великий рифт: Дикое сердце Африки смотреть онлайн
    Cкачать фильм Великий рифт: Дикое сердце Африки бесплатно
    Великий рифт: Дикое сердце Африки скачать торрент в хорошем качестве
    Великий рифт: Дикое сердце Африки смотреть онлайн бесплатно в хорошем качестве


    Вы не можете начинать темы
    Вы не можете отвечать на сообщения
    Вы не можете редактировать свои сообщения
    Вы не можете удалять свои сообщения
    Вы не можете голосовать в опросах
    Вы не можете прикреплять файлы к сообщениям
    Вы можете скачивать файлы