1 сезон

3 сезон

iTunes

1

iTunes

MVO

iTunes

13

1 сезон

RePack

30

Deluxe

pack

Лицензия

ВАЖНО

ИГРА 18+

pack

RePack

MK11

RePack

jed

RePack

fifa19

RePack

RDR2

RePack

NEED FOR SPEED™ PAYBACK

4 сезон

9 сезон

Бесстыжие 9 сезон

Все сериалы

все сериалы на PB.wtf

RePack

FAR CRY 5

Anonymous, доброй ночи, мы катастрофически не успеваем собрать деньги на оплату серверов, помогите нам пожалуйста 5,10,15р., для нас важна любая помощь . В качестве благодарности мы отключим Вам всю рекламу на сайте (укажите свой ник в строку Ваше имя)!

×
  
Magnet ссылка

Области тьмы / Limitless (Нил Бёргер / Neil Burger) [2011, США, фантастика, триллер, детектив, DVD9] R5 «CP-Digital» pb.wtf

Области тьмы через торрент pb.wtf

Размер: 7.27 GB | Добавлен: 10 лет назад | Торрент скачан:144 раза
Скачать  

16-05-2011 20:17 Области тьмы Скачать торрент  


Области тьмы / Limitless
«Что если одна таблетка NZT сделает тебя богатым и могущественным? Узнай о побочных эффектах.»
Страна: США
Студия: Boy of the Year, Intermedia, Many Rivers Productions, Relativity Media, Virgin Produced
Жанр: фантастика, триллер, детектив
Год выпуска: 2011
Мировая премьера: 8 марта 2011
Российская премьера: 17 марта 2011, «Парадиз», «Наше Кино»
Дата выхода DVD: 19 мая 2011, «CP-Digital»
Дата выхода Blu-Ray: 19 мая 2011, «CP-Digital»
Продолжительность: 01:40:26
Перевод: Профессиональный (дублированный) [Лицензия]
Cубтитры: нет
Режиссер: Нил Бёргер / Neil Burger
В ролях: Брэдли Купер, Роберт Де Ниро, Эбби Корниш, Эндрю Ховард, Анна Фрил, Джонни Витуорт, Томас Арана, Роберт Джон Бёрк, Даррен Голдштейн, Нед Эйзенберг
Описание: Нью-йоркский писатель Эдди, желая преодолеть чёрную полосу в жизни, принимает засекреченный препарат под названием NZT. Таблетка выводит мозг парня на работу в нереальной мощности. Этот творческий наркотик меняет всю жизнь Эдди, за короткий срок он зарабатывает кучу денег, но скоро начинает страдать от зловещих побочных эффектов препарата. А когда пытается найти других NZT-гениев, чтобы понять, как можно справиться с этим пристрастием, он узнает страшную правду…
Бонусы: Смотрите на DVD, трейлер, на съемочной площадке, создатели и исполнители, фотогалерея, каталог

Качество: DVD9 R5
Формат: DVD-Video
Видео кодек: MPEG2
Аудио кодек: AC3 + DTS
Видео: PAL 16:9 (720x576(0.679)) MPEG Video,25,000 кадр/сек, 7039 Кбит/сек
Аудио #1: Russian (Dolby AC3, 6 ch) 448 Кбит/сек, 48,0 КГц
Аудио #2: Russian (DTS, 5 ch) 768 Кбит/сек, 48,0 КГц



Title: Мой диск
Size: 7.27 Gb ( 7 627 360 KBytes ) - DVD-9
Enabled regions: 1, 2, 3, 4, 5, 6, 7, 8

VTS_01 :
Play Length: 00:00:05
Video: PAL 4:3 (720x576) VBR
Subtitles:
English
English

VTS_02 :
Play Length: 00:00:15
Video: PAL 16:9 (720x576) VBR, Auto Letterboxed
Audio:
Not specified (Dolby AC3, 6 ch)
Not specified (Dolby AC3, 6 ch)
Not specified (Dolby AC3, 6 ch)
Subtitles:
Not specified
English

VTS_03 :
Play Length: 00:01:53
Video: PAL 16:9 (720x576) VBR, Auto Letterboxed
Audio:
Not specified (Dolby AC3, 6 ch)
Not specified (Dolby AC3, 6 ch)
Subtitles:
Not specified

VTS_04 :
Play Length: 00:00:16
Video: PAL 4:3 (720x576) VBR
Audio:
Not specified (Dolby AC3, 2 ch)
Not specified (Dolby AC3, 2 ch)

VTS_05 :
Play Length: 01:40:26
Video: PAL 16:9 (720x576) VBR, Auto Letterboxed
Audio:
Russian (Dolby AC3, 6 ch)
Russian (DTS, 5 ch)

VTS_06 :
Play Length: 00:02:00
Video: PAL 16:9 (720x576) VBR, Auto Letterboxed
Audio:
Not specified (Dolby AC3, 2 ch)
Subtitles:
Not specified

VTS_07 :
Play Length: 00:01:51
Video: PAL 16:9 (720x576) VBR, Auto Letterboxed
Audio:
Not specified (Dolby AC3, 2 ch)
Subtitles:
Not specified

VTS_08 :
Play Length: 00:01:41
Video: PAL 16:9 (720x576) VBR, Auto Letterboxed
Audio:
Not specified (Dolby AC3, 2 ch)
Subtitles:
Not specified

VTS_09 :
Play Length: 00:02:14
Video: PAL 16:9 (720x576) VBR, Auto Letterboxed
Audio:
Not specified (Dolby AC3, 2 ch)
Subtitles:
Not specified

VTS_10 :
Play Length: 00:02:27
Video: PAL 4:3 (720x576) VBR
Audio:
Not specified (Dolby AC3, 2 ch)
Subtitles:
Not specified

VTS_11 :
Play Length: 00:01:53
Video: PAL 16:9 (720x576) VBR, Auto Letterboxed
Audio:
Not specified (Dolby AC3, 2 ch)
Subtitles:
Not specified

VTS_12 :
Play Length: 00:01:03
Video: PAL 16:9 (720x576) VBR, Auto Letterboxed
Audio:
Not specified (Dolby AC3, 2 ch)

VTS_13 :
Play Length: 00:12:04
Video: PAL 16:9 (720x576) VBR, Auto Letterboxed
Audio:
Not specified (Dolby AC3, 2 ch)

VTS_14 :
Play Length: 00:02:26
Video: PAL 16:9 (720x576) VBR, Auto Letterboxed
Audio:
Not specified (Dolby AC3, 2 ch)
Subtitles:
Not specified
Общее
Полное имя : F:\Новинки 2011\Oblast.tmi.2011.DVD9\VIDEO_TS\VTS_05_2.VOB
Формат : MPEG-PS
Размер файла : 1024 Мбайт
Продолжительность : 17 м.
Общий поток : 8409 Кбит/сек

Видео
Идентификатор : 224 (0xE0)
Формат : MPEG Video
Версия формата : Version 2
Профиль формата : Main@Main
Параметр BVOP формата : Да
Параметр матрицы формата : По умолчанию
Параметры GOP формата : M=3, N=15
Продолжительность : 17 м.
Вид битрейта : Переменный
Битрейт : 7039 Кбит/сек
Номинальный битрейт : 8000 Кбит/сек
Ширина : 720 пикс.
Высота : 576 пикс.
Соотношение сторон : 16:9
Частота кадров : 25,000 кадр/сек
Стандарт вещания : PAL
Цветовое пространство : YUV
Подвыборка цветности : 4:2:0
Битовая глубина : 8 бит
Тип развёртки : Прогрессивная
Метод сжатия : С потерями
Бит/(Пиксели*Кадры) : 0.679
Размер потока : 857 Мбайт (84%)

Аудио #1
Идентификатор : 189 (0xBD)-128 (0x80)
Формат : AC-3
Формат/Информация : Audio Coding 3
Расширение режима : CM (complete main)
Режим смешивания : DVD-Video
Продолжительность : 17 м.
Вид битрейта : Постоянный
Битрейт : 448 Кбит/сек
Канал(ы) : 6 канала(ов)
Расположение каналов : Front: L C R, Side: L R, LFE
Частота : 48,0 КГц
Битовая глубина : 16 бит
Метод сжатия : С потерями
Задержка видео : -464 мс.
Размер потока : 54,6 Мбайт (5%)

Аудио #2
Идентификатор : 189 (0xBD)-137 (0x89)
Формат : DTS
Формат/Информация : Digital Theater Systems
Режим смешивания : DVD-Video
Продолжительность : 17 м.
Вид битрейта : Постоянный
Битрейт : 755 Кбит/сек
Канал(ы) : 6 канала(ов)
Расположение каналов : Front: L C R, Side: L R, LFE
Частота : 48,0 КГц
Битовая глубина : 24 бит
Метод сжатия : С потерями
Задержка видео : -549 мс.
Размер потока : 91,9 Мбайт (9%)










pb.wtf



Скачать Области тьмы через торрент http://i3.imageban.ru/out/2011/05/16/3bf600611dd1d3ec5445910504e22797.jpg Скачать фильм Области тьмы через торрент бесплантно в хорошем качестве Описание: Нью-йоркский писатель Эдди, желая преодолеть чёрную полосу в жизни, принимает засекреченный препарат под названием NZT. Таблетка ... 10 10 1
Info! Золотая раздача, скачанное не засчитывается.
Торрент: Зарегистрирован [2011-05-16 20:17] · скачан: 144 раз
Статус: √ проверено
Размер: 7.27 GB
Как cкачать? Как скачать Области тьмы через торрент | UTorrent

28-11-2019 20:33  

Отключить всю рекламу на сайте


16-05-2011 22:18 Области тьмы Скачать торрент  

СПАСИБО ГЛЯНЕМpb.wtf



18-05-2011 15:17 Области тьмы Скачать торрент  

А звук типа чиста русский? на 8 гигов? о-о.pb.wtf



    Дорогой пользователь! Огромная просьба, поблагодарите релизера, оцените раздачу и оставьте свои комментарий, если Вы скачали Области тьмы через торрент бесплатно! Внесите свою лепту в развитие PiratBit!
    Комментировать посты могут только пользователи прошедшие не сложную регистрацию
    Показать сообщения:    

    Области тьмы через торрент
    Скачать бесплатно Области тьмы
    Области тьмы скачать торрент
    Области тьмы смотреть онлайн
    Cкачать фильм Области тьмы бесплатно
    Области тьмы скачать торрент в хорошем качестве
    Области тьмы смотреть онлайн бесплатно в хорошем качестве


    Вы не можете начинать темы
    Вы не можете отвечать на сообщения
    Вы не можете редактировать свои сообщения
    Вы не можете удалять свои сообщения
    Вы не можете голосовать в опросах
    Вы не можете прикреплять файлы к сообщениям
    Вы можете скачивать файлы