1 сезон

3 сезон

iTunes

1

Line

MVO

iTunes

13

1 сезон

RePack

30

Deluxe

pack

Лицензия

ВАЖНО

ИГРА 18+

pack

RePack

MK11

RePack

jed

RePack

fifa19

RePack

RDR2

RePack

NEED FOR SPEED™ PAYBACK

4 сезон

9 сезон

Бесстыжие 9 сезон

Все сериалы

все сериалы на PB.wtf

RePack

FAR CRY 5

Anonymous, добрый вечер, мы катастрофически не успеваем собрать деньги на оплату серверов, помогите нам пожалуйста 5,10,15р., для нас важна любая помощь . В качестве благодарности мы отключим Вам всю рекламу на сайте (укажите свой ник в строку Ваше имя)!

×
  
Magnet ссылка

Области тьмы / Limitless (Нил Бёргер) [2011 г., фантастика, триллер, детектив, DVD5 сжатый, лицензия] pb.wtf

Скачать  

17-05-2011 02:24 Области тьмы Скачать торрент  

Области тьмы / Limitless Год выхода: 2011
Жанр: триллер
Страна: США, Intermedia
Продолжительность: 01:40:26
Перевод: Дублированный [лицензия]

Режиссер: Нил Бёргер
В ролях: Брэдли Купер, Роберт Де Ниро, Эбби Корниш, Эндрю Ховард, Анна Фрил, Джонни Витуорт, Томас Арана, Роберт Джон Бёрк, Даррен Голдштейн, Нед Эйзенберг

Описание:
Нью-йоркский рекламщик Эдди, желая преодолеть чёрную полосу в жизни, принимает засекреченный препарат под названием NZT. Таблетка выводит мозг парня на работу в нереальной мощности. Этот творческий наркотик меняет всю жизнь Эдди, за короткий срок он зарабатывает кучу денег, но скоро начинает страдать от зловещих побочных эффектов препарата. А когда пытается найти других NZT-гениев, чтобы понять, как можно справиться с этим пристрастием, он узнает страшную правду…

Формат: DVD Video
Качество: DVD5 сжатый
Видео: PAL 16:9 (720x576), 5332 Кбит/сек, 25,000 кадр/сек
Аудио: Russian (Dolby AC3, 6 ch), 448 Кбит/сек, 48,0 КГц
Субтитры: Нет
Размер: 4.37 GB
Дополнительно: Нет
Видео
Идентификатор : 224 (0xE0)
Формат : MPEG Video
Версия формата : Version 2
Профиль формата : Main@Main
Параметр BVOP формата : Да
Параметр матрицы формата : По умолчанию
Продолжительность : 24 м.
Вид битрейта : Переменный
Битрейт : 5332 Кбит/сек
Номинальный битрейт : 8000 Кбит/сек
Ширина : 720 пикс.
Высота : 576 пикс.
Соотношение сторон : 16:9
Частота кадров : 25,000 кадр/сек
Стандарт вещания : PAL
Цветовое пространство : YUV
Подвыборка цветности : 4:2:0
Битовая глубина : 8 бит
Тип развёртки : Прогрессивная
Метод сжатия : С потерями
Бит/(Пиксели*Кадры) : 0.514
Размер потока : 926 Мбайт (90%)

Аудио
Идентификатор : 189 (0xBD)-128 (0x80)
Формат : AC-3
Формат/Информация : Audio Coding 3
Расширение режима : CM (complete main)
Режим смешивания : DVD-Video
Продолжительность : 24 м.
Вид битрейта : Постоянный
Битрейт : 448 Кбит/сек
Каналы : 6 каналов
Расположение каналов : Front: L C R, Side: L R, LFE
Частота : 48,0 КГц
Битовая глубина : 16 бит
Метод сжатия : С потерями
Размер потока : 77,8 Мбайт (8%)
pb.wtf





Последний раз редактировалось: falco (2011-05-17 03:25), всего редактировалось 1 раз

28-11-2019 20:33  

Отключить всю рекламу на сайте

17-05-2011 03:18 Области тьмы Скачать торрент  

falco
Битрейт видео? Частота кадра?Аудио информация не полностью.pb.wtf



17-05-2011 13:24 Области тьмы Скачать торрент  

Чем сжималось, как сжималось, % сжатия, меню редактировалось? Заранее спасибо!...pb.wtf



18-05-2011 15:16 Области тьмы Скачать торрент  

Звук типа чиста русский? о-о.pb.wtf



    Дорогой пользователь! Огромная просьба, поблагодарите релизера, оцените раздачу и оставьте свои комментарий, если Вы скачали Области тьмы через торрент бесплатно! Внесите свою лепту в развитие PiratBit!
    Комментировать посты могут только пользователи прошедшие не сложную регистрацию
    Показать сообщения:    

    Области тьмы через торрент
    Скачать бесплатно Области тьмы
    Области тьмы скачать торрент
    Области тьмы смотреть онлайн
    Cкачать фильм Области тьмы бесплатно
    Области тьмы скачать торрент в хорошем качестве
    Области тьмы смотреть онлайн бесплатно в хорошем качестве


    Вы не можете начинать темы
    Вы не можете отвечать на сообщения
    Вы не можете редактировать свои сообщения
    Вы не можете удалять свои сообщения
    Вы не можете голосовать в опросах
    Вы не можете прикреплять файлы к сообщениям
    Вы можете скачивать файлы