1 сезон

3 сезон

iTunes

1

iTunes

MVO

iTunes

13

1 сезон

RePack

30

Deluxe

pack

Лицензия

ВАЖНО

ИГРА 18+

pack

RePack

MK11

RePack

jed

RePack

fifa19

RePack

RDR2

RePack

NEED FOR SPEED™ PAYBACK

4 сезон

9 сезон

Бесстыжие 9 сезон

Все сериалы

все сериалы на PB.wtf

RePack

FAR CRY 5

Anonymous, добрый день, мы катастрофически не успеваем собрать деньги на оплату серверов, помогите нам пожалуйста 5,10,15р., для нас важна любая помощь . В качестве благодарности мы отключим Вам всю рекламу на сайте (укажите свой ник в строку Ваше имя)!

×
  
Magnet ссылка

Я – Четвертый / I Am Number Four (Ди Джей Карузо / D.J. Caruso) [2011, США, фантастика, боевик, триллер, DVD9] R5 «Уолт Дисней Компани СНГ» pb.wtf

Я – Четвертый через торрент pb.wtf

Размер: 6.8 GB | Добавлен: 10 лет назад | Торрент скачан:131 раз
Скачать  

18-05-2011 16:53 Я – Четвертый Скачать торрент  


Я – Четвертый / I Am Number Four
«Трое уже мертвы... Он – четвертый...»
Страна: США
Студия: Bay Films, DreamWorks Pictures, Imagenation Abu Dhabi FZ, Media Rights Capital, Reliance Big Entertainment, Road Rebel
Жанр: фантастика, боевик, триллер
Год выпуска: 2011
Мировая премьера: 17 февраля 2011
Российская премьера: 24 февраля 2011, «WDSSPR»
Дата выхода DVD: 24 мая 2011, «Уолт Дисней Компани СНГ»
Дата выхода Blu-Ray: 24 мая 2011, «Уолт Дисней Компани СНГ»
Продолжительность: 01:45:06
Перевод: Профессиональный (дублированный) [Лицензия]
Cубтитры: русские, английские, итальянские, латышские, литовские, эстонские, украинские
Оригинальная аудиодорожка: английский
Режиссер: Ди Джей Карузо / D.J. Caruso
В ролях: Алекс Петтифер, Тимоти Олифант, Тереза Палмер, Дианна Агрон, Каллэн МакОлиффи, Кевин Дюран, Джэйк Абель, Джефф Хочендонер, Патрик Сибис, Грег Таунлей
Описание: Обычный с виду подросток Джон Смит на самом деле — один из последних выживших обитателей далекой планеты. Джон вынужден скрываться от страшных врагов, посланных уничтожить его, ему приходится менять имена, постоянно переезжая с места на место со своим опекуном Генри. В разных городках и в разных школах Джон всегда был новичком без прошлого, но однажды он нашел место, которое смог назвать домом: в маленьком городке в Огайо Джон встретил свою любовь. Теперь ему предстоит открыть в себе уникальные способности, сразиться с древними и страшными врагами своего народа и осознать свое удивительное предназначение.
Бонусы: Как стать номером шесть, смешные дубли

Качество: DVD9 R5
Формат: DVD-Video
Видео кодек: MPEG2
Аудио кодек: AC3
Видео: PAL 16:9 (720x576(0.601)) MPEG Video,25,000 кадр/сек, 6227 Кбит/сек
Аудио #1: Russian (Dolby AC3, 6 ch) 384 Кбит/сек, 48,0 КГц
Аудио #2: English (Dolby AC3, 6 ch) 384 Кбит/сек, 48,0 КГц
Аудио #3: Italiano (Dolby AC3, 6 ch) 384 Кбит/сек, 48,0 КГц
Аудио #4: Ukrainian (Dolby AC3, 6 ch) 384 Кбит/сек, 48,0 КГц



Title: Мой диск
Size: 6.80 Gb ( 7 130 372 KBytes ) - DVD-9
Enabled regions: 1, 2, 3, 4, 5, 6, 7, 8

VTS_01 :
Play Length: 01:45:06
Video: PAL 16:9 (720x576) VBR, Auto Letterboxed
Audio:
English (Dolby AC3, 6 ch)
Italiano (Dolby AC3, 6 ch)
Russian (Dolby AC3, 6 ch)
Ukrainian (Dolby AC3, 6 ch)
Subtitles:
English
English
Italiano
Russian
Latvian
Lithuanian
Estonian
Ukrainian
Italiano
Russian
Ukrainian

VTS_02 :
Play Length:
Video: PAL 16:9 (720x576) VBR, Auto Letterboxed
Audio:
English (Dolby AC3, 2 ch)
Italiano (Dolby AC3, 2 ch)
Russian (Dolby AC3, 2 ch)
Ukrainian (Dolby AC3, 2 ch)
Subtitles:
English
English
Italiano
Russian
Latvian
Lithuanian
Estonian
Ukrainian
Italiano
Russian
Ukrainian

VTS_03 :
Play Length:
Video: PAL 16:9 (720x576) VBR, Auto Letterboxed

VTS_04 :
Play Length:
Video: PAL 16:9 (720x576) VBR, Auto Pan&Scan

VTS_05 :
Play Length:
Video: PAL 4:3 (720x576) VBR

VTS_06 :
Play Length:
Video: PAL 16:9 (720x576) VBR, Auto Pan&Scan

VTS_07 :
Play Length:
Video: PAL 16:9 (720x576) VBR, Auto Pan&Scan

VTS_08 :
Play Length:
Video: PAL 16:9 (720x576) VBR, Auto Pan&Scan

VTS_09 :
Play Length:
Video: PAL 16:9 (720x576) VBR, Auto Pan&Scan

VTS_10 :
Play Length: 00:11:16
Video: PAL 16:9 (720x576) VBR, Auto Letterboxed
Audio:
English (Dolby AC3, 2 ch)
Subtitles:
Italiano
Russian
Ukrainian

VTS_11 :
Play Length: 00:03:08
Video: PAL 4:3 (720x576) VBR
Audio:
English (Dolby AC3, 2 ch)
Subtitles:
Italiano
Russian
Ukrainian

VTS_12 :
Play Length: 00:00:07
Video: PAL 16:9 (720x576) VBR, Auto Letterboxed
Audio:
English (Dolby AC3, 2 ch)
Italiano (Dolby AC3, 2 ch)

VTS_13 :
Play Length: 00:01:19
Video: PAL 16:9 (720x576) VBR, Auto Letterboxed
Audio:
English (Dolby AC3, 2 ch)
Italiano (Dolby AC3, 2 ch)
Russian (Dolby AC3, 2 ch)
Ukrainian (Dolby AC3, 2 ch)
Subtitles:
Italiano
Russian

VTS_14 :
Play Length: 00:02:18
Video: PAL 16:9 (720x576) VBR, Auto Letterboxed
Audio:
English (Dolby AC3, 2 ch)
Italiano (Dolby AC3, 2 ch)
Russian (Dolby AC3, 2 ch)
Ukrainian (Dolby AC3, 2 ch)
Subtitles:
Italiano
Russian

VTS_15 :
Play Length:
Video: PAL 16:9 (720x576) VBR, Auto Pan&Scan

VTS_16 :
Play Length: 00:00:35
Video: PAL 16:9 (720x576) VBR, Auto Letterboxed
Audio:
English (Dolby AC3, 2 ch)
Общее
Полное имя : F:\Новинки 2011\Ya.chetvertiy.2011.DVD9\VIDEO_TS\VTS_01_1.VOB
Формат : MPEG-PS
Размер файла : 1024 Мбайт
Продолжительность : 18 м.
Общий поток : 7921 Кбит/сек

Видео
Идентификатор : 224 (0xE0)
Формат : MPEG Video
Версия формата : Version 2
Профиль формата : Main@Main
Параметр BVOP формата : Да
Параметр матрицы формата : По умолчанию
Продолжительность : 18 м.
Вид битрейта : Переменный
Битрейт : 6227 Кбит/сек
Номинальный битрейт : 9800 Кбит/сек
Ширина : 720 пикс.
Высота : 576 пикс.
Соотношение сторон : 16:9
Частота кадров : 25,000 кадр/сек
Стандарт вещания : PAL
Цветовое пространство : YUV
Подвыборка цветности : 4:2:0
Битовая глубина : 8 бит
Тип развёртки : Чересстрочная
Порядок развёртки : Верхнее поле первое
Метод сжатия : С потерями
Бит/(Пиксели*Кадры) : 0.601
Размер потока : 805 Мбайт (79%)

Аудио #1
Идентификатор : 189 (0xBD)-128 (0x80)
Формат : AC-3
Формат/Информация : Audio Coding 3
Расширение режима : CM (complete main)
Режим смешивания : DVD-Video
Продолжительность : 18 м.
Вид битрейта : Постоянный
Битрейт : 384 Кбит/сек
Канал(ы) : 6 канала(ов)
Расположение каналов : Front: L C R, Side: L R, LFE
Частота : 48,0 КГц
Битовая глубина : 16 бит
Метод сжатия : С потерями
Размер потока : 49,6 Мбайт (5%)

Аудио #2
Идентификатор : 189 (0xBD)-129 (0x81)
Формат : AC-3
Формат/Информация : Audio Coding 3
Расширение режима : CM (complete main)
Режим смешивания : DVD-Video
Продолжительность : 18 м.
Вид битрейта : Постоянный
Битрейт : 384 Кбит/сек
Канал(ы) : 6 канала(ов)
Расположение каналов : Front: L C R, Side: L R, LFE
Частота : 48,0 КГц
Битовая глубина : 16 бит
Метод сжатия : С потерями
Размер потока : 49,6 Мбайт (5%)

Аудио #3
Идентификатор : 189 (0xBD)-130 (0x82)
Формат : AC-3
Формат/Информация : Audio Coding 3
Расширение режима : CM (complete main)
Режим смешивания : DVD-Video
Продолжительность : 18 м.
Вид битрейта : Постоянный
Битрейт : 384 Кбит/сек
Канал(ы) : 6 канала(ов)
Расположение каналов : Front: L C R, Side: L R, LFE
Частота : 48,0 КГц
Битовая глубина : 16 бит
Метод сжатия : С потерями
Размер потока : 49,6 Мбайт (5%)

Аудио #4
Идентификатор : 189 (0xBD)-131 (0x83)
Формат : AC-3
Формат/Информация : Audio Coding 3
Расширение режима : CM (complete main)
Режим смешивания : DVD-Video
Продолжительность : 18 м.
Вид битрейта : Постоянный
Битрейт : 384 Кбит/сек
Канал(ы) : 6 канала(ов)
Расположение каналов : Front: L C R, Side: L R, LFE
Частота : 48,0 КГц
Битовая глубина : 16 бит
Метод сжатия : С потерями
Размер потока : 49,6 Мбайт (5%)










pb.wtf



Скачать Я – Четвертый через торрент http://i2.imageban.ru/out/2011/05/18/8224e930b2dc81c773eb611307673e15.jpg Скачать фильм Я – Четвертый через торрент бесплантно в хорошем качестве Описание: Обычный с виду подросток Джон Смит на самом деле — один из последних выживших обитателей далекой планеты. Джон вынужден ... 10 10 2
Info! Золотая раздача, скачанное не засчитывается.
Торрент: Зарегистрирован [2011-05-18 16:53] · скачан: 131 раз
Статус: √ проверено
Размер: 6.8 GB
Как cкачать? Как скачать Я – Четвертый через торрент | UTorrent

28-11-2019 20:33  

Отключить всю рекламу на сайте

18-05-2011 17:03 Я – Четвертый Скачать торрент  

фильм так себеpb.wtf



    Дорогой пользователь! Огромная просьба, поблагодарите релизера, оцените раздачу и оставьте свои комментарий, если Вы скачали Я – Четвертый через торрент бесплатно! Внесите свою лепту в развитие PiratBit!
    Комментировать посты могут только пользователи прошедшие не сложную регистрацию
    Показать сообщения:    

    Я – Четвертый через торрент
    Скачать бесплатно Я – Четвертый
    Я – Четвертый скачать торрент
    Я – Четвертый смотреть онлайн
    Cкачать фильм Я – Четвертый бесплатно
    Я – Четвертый скачать торрент в хорошем качестве
    Я – Четвертый смотреть онлайн бесплатно в хорошем качестве


    Вы не можете начинать темы
    Вы не можете отвечать на сообщения
    Вы не можете редактировать свои сообщения
    Вы не можете удалять свои сообщения
    Вы не можете голосовать в опросах
    Вы не можете прикреплять файлы к сообщениям
    Вы можете скачивать файлы