Всегда рабочее зеркало без VPN и Proxy просто перед .vidak.icu напиши любое слово или цифру, Пример http://ui2i.vidak.icu

Лицензия

MVO

1 сезон

1

1 сезон

iTunes

1 сезон

13

1 сезон

Deluxe

pack

Рекомендуем

Repack

30

ВАЖНО

RePack

MK11

RePack

jed

RePack

fifa19

RePack

RDR2

RePack

NEED FOR SPEED™ PAYBACK

Кинопоиск HD

6 сезон

 Острые козырьки 6 сезон

Все сериалы

все сериалы на PB.wtf

RePack

FAR CRY 5
  
Magnet ссылка

Рио / Rio (Карлос Салдана) [2011 г., мультфильм, мюзикл, комедия, приключения, семейный, DVDRip-AVC] pb.wtf

Рио через торрент pb.wtf

Размер: 1.87 GB | Добавлен: 11 лет назад | Торрент скачан:368 раз
Смотреть онлайн Рио | Скачать    Ребята, помогите собрать деньги на оплату серверов!!!

19-05-2011 17:08 Рио Скачать торрент  

| DVDRip-AVC, 1.87 GB|
P R E S E N T SРио / Rio Год выпуска: 2011
Страна: США
Жанр: Анимационный, мюзикл, приключения, комедия, семейный, мультфильм
Продолжительность: 01:32:00
Субтитры: есть
Навигация по главам: есть (15 глав)
Перевод: Профессиональный (полное дублирование)
Режиссер: Карлос Салдана / Carlos Saldanha
Роли озвучивали: Джесси Айзенберг / Jesse Eisenberg (Blu), Энн Хэтэуэй / Anne Hathaway (Jewel), Джейми Фокс / Jamie Foxx (Nico), Уилл Ай Эм / Will i Am (Pedro), Родриго Санторо / Rodrigo Santoro (Tulio / Soccer Announcer), Карен Дишер / Karen Disher (Mother Bird), Карлос Понсе / Carlos Ponce (Marcel), Джордж Лопез / George Lopez (Rafael), Джемейн Клемент / Jemaine Clement (Nigel), Лесли Манн / Leslie Mann (Linda), Трэйси Морган / Tracy Morgan (Luiz), Карлос Салдана / Carlos Saldanha (Second Waiter)
Роли дублировали: Павел Деревянко (Blu), Татьяна Шилина (Jewel), Илья Колесников (Nico), Аркадий Джем (Pedro), Александр Груздев (Marcel), Никита Прозоровский (Rafael), Олег Куценко (Nigel)
Описание: Попугай-зануда оставляет свою уютную сытую жизнь в клетке и из Миннесоты отправляется в Рио-де-Жанейро, город грез всех и каждого. Неминуемые встречи, препятствия, опасности и любовь к последней представительнице его рода заставляют нашего героя по-другому посмотреть на мир и из скучного домоседа превратиться в милого симпатягу, узнавшего цену дружбе и смелости...

User Rating: 7.3/10 (11,197 votes)
Рейтинг мультфильма 7.646 (8 544)
Рекомендуется присутствие родителей.
Доп. информация: Анаморфный Rip 720х[email protected]х426 (2.403:1) с размером файла - 1.87 GB. В релиз включены - 3 звуковые дорожки и субтитры на 2-х языках.
Сэмпл/Sample || Зеркала (24.4 MB, 1 минута)
Качество: DVDRip
Формат: MKV
Видео кодек: H.264
Аудио кодек: AC3
Формат субтитров: SRT
Видео: [email protected] (2.403:1), 25,000 fps, ~1819 kbps, 0.237 b/p*f
Аудио:
Audio #1 (Rus): AC-3, 6 channels, 48.0 KHz, 448 Kbps - Профессиональный (полное дублирование) - язык русский
Audio #2 (Ukr): AC-3, 6 channels, 48.0 KHz, 448 Kbps - Профессиональный (полное дублирование) - язык украинский
Audio #3 (Eng): AC-3, 2 channels, 48.0 KHz, 192 Kbps - Оригинал (английский) [Line Audio]
Субтитры: (Subs - Rus, Eng) русские, английские (по умолчанию - выключены)

raw [info]: 720x426p 64:45 @ 25/1 fps (cfr)x264 [info]: using SAR=64/45x264 [info]: using cpu capabilities: MMX2 SSE2Fast SSSE3 FastShuffle SSE4.2x264 [info]: profile High, level 3.1x264 [info]: frame I:1256 Avg QP:15.18 size: 41669 PSNR Mean Y:48.82 U:51.37 V:51.36 Avg:49.50 Global:48.96x264 [info]: frame P:35593 Avg QP:18.70 size: 15074 PSNR Mean Y:46.50 U:49.18 V:49.15 Avg:47.18 Global:46.24x264 [info]: frame B:101156 Avg QP:21.75 size: 6590 PSNR Mean Y:45.23 U:48.51 V:48.46 Avg:46.04 Global:45.38x264 [info]: consecutive B-frames: 2.7% 4.3% 13.9% 42.8% 15.0% 19.0% 1.7% 0.6%x264 [info]: mb I I16..4: 5.0% 75.0% 20.1%x264 [info]: mb P I16..4: 2.2% 17.4% 2.1% P16..4: 38.2% 20.9% 6.1% 0.6% 0.2% skip:12.3%x264 [info]: mb B I16..4: 0.3% 2.8% 0.6% B16..8: 29.3% 11.8% 3.4% direct: 7.0% skip:44.7% L0:35.5% L1:40.2% BI:24.3%x264 [info]: 8x8 transform intra:78.6% inter:74.3%x264 [info]: coded y,uvDC,uvAC intra: 81.2% 86.9% 62.3% inter: 26.9% 27.1% 6.9%x264 [info]: i16 v,h,dc,p: 31% 21% 7% 40%x264 [info]: i8 v,h,dc,ddl,ddr,vr,hd,vl,hu: 22% 12% 8% 6% 9% 13% 8% 12% 10%x264 [info]: i4 v,h,dc,ddl,ddr,vr,hd,vl,hu: 26% 11% 5% 6% 11% 14% 9% 10% 8%x264 [info]: i8c dc,h,v,p: 32% 22% 26% 20%x264 [info]: Weighted P-Frames: Y:1.8% UV:1.3%x264 [info]: ref P L0: 50.4% 9.7% 18.3% 5.3% 4.8% 3.5% 3.3% 2.0% 2.1% 0.4% 0.0%x264 [info]: ref B L0: 82.5% 9.6% 3.2% 1.6% 1.2% 1.0% 0.6% 0.3%x264 [info]: ref B L1: 95.8% 4.2%x264 [info]: SSIM Mean Y:0.9904471 (20.199db)x264 [info]: PSNR Mean Y:45.586 U:48.709 V:48.667 Avg:46.365 Global:45.607 kb/s:1819.48encoded 138005 frames, 8.52 fps, 1819.48 kb/s
GeneralUnique ID : 228842351535085053299263888369868312911 (0xAC296F095BA2F28B89E73A5FA847914F)Complete name : Rio.2011.DVDRip[tRuAVC].mkvFormat : MatroskaFile size : 1.87 GiBDuration : 1h 32mnOverall bit rate : 2 910 KbpsEncoded date : UTC 2011-05-15 07:21:37Writing application : mkvmerge v4.0.0 ('The Stars were mine') built on Jun 6 2010 16:18:42Writing library : libebml v1.0.0 + libmatroska v1.0.0
VideoID : 1Format : AVCFormat/Info : Advanced Video CodecFormat profile : [email protected] settings, CABAC : YesFormat settings, ReFrames : 9 framesCodec ID : V_MPEG4/ISO/AVCDuration : 1h 32mnBit rate : 1 819 KbpsWidth : 720 pixelsHeight : 426 pixelsDisplay aspect ratio : 2.40:1Frame rate : 25.000 fpsColor space : YUVChroma subsampling : 4:2:0Bit depth : 8 bitsScan type : ProgressiveBits/(Pixel*Frame) : 0.237Stream size : 1.17 GiB (61%)Title : PAL, [email protected] (2.403:1), DVDRip - tRuAVC [DFCbit]Writing library : x264 core 115 r1947kMod b5a8ad7Encoding settings : cabac=1 / ref=9 / deblock=1:-3:-2 / analyse=0x3:0x133 / me=umh / subme=10 / psy=1 / fade_compensate=0.00 / psy_rd=0.60:0.00 / mixed_ref=1 / me_range=32 / chroma_me=1 / trellis=2 / 8x8dct=1 / cqm=0 / deadzone=21,11 / fast_pskip=0 / chroma_qp_offset=-2 / threads=3 / sliced_threads=0 / nr=0 / decimate=1 / interlaced=0 / bluray_compat=0 / constrained_intra=0 / bframes=7 / b_pyramid=2 / b_adapt=2 / b_bias=0 / direct=1 / weightb=1 / open_gop=0 / weightp=2 / keyint=250 / keyint_min=25 / scenecut=40 / intra_refresh=0 / rc_lookahead=70 / rc=crf / mbtree=1 / crf=17.8500 / qcomp=0.80 / qpmin=0 / qpmax=69 / qpstep=4 / ip_ratio=1.40 / aq=2:1.00Color primaries : BT.470-6 System B, BT.470-6 System G, BT.601-6 625, BT.1358 625, BT.1700 625 PAL, BT.1700 625 SECAMTransfer characteristics : BT.470-6 System B, BT.470-6 System GMatrix coefficients : BT.470-6 System B, BT.470-6 System G, BT.601-6 625, BT.1358 625, BT.1700 625 PAL, BT.1700 625 SECAM, IEC 61966-2-4 601
Audio #1ID : 2Format : AC-3Format/Info : Audio Coding 3Mode extension : CM (complete main)Codec ID : A_AC3Duration : 1h 32mnBit rate mode : ConstantBit rate : 448 KbpsChannel(s) : 6 channelsChannel positions : Front: L C R, Side: L R, LFESampling rate : 48.0 KHzBit depth : 16 bitsCompression mode : LossyStream size : 295 MiB (15%)Title : AC3, 6 ch, 48 kHz, 448 kbps, DubbingLanguage : Russian
Audio #2ID : 3Format : AC-3Format/Info : Audio Coding 3Mode extension : CM (complete main)Codec ID : A_AC3Duration : 1h 32mnBit rate mode : ConstantBit rate : 448 KbpsChannel(s) : 6 channelsChannel positions : Front: L C R, Side: L R, LFESampling rate : 48.0 KHzBit depth : 16 bitsCompression mode : LossyStream size : 295 MiB (15%)Title : AC3, 6 ch, 48 kHz, 448 kbps, DubbingLanguage : Ukrainian
Audio #3ID : 4Format : AC-3Format/Info : Audio Coding 3Mode extension : CM (complete main)Codec ID : A_AC3Duration : 1h 32mnBit rate mode : ConstantBit rate : 192 KbpsChannel(s) : 2 channelsChannel positions : Front: L RSampling rate : 48.0 KHzBit depth : 16 bitsCompression mode : LossyStream size : 126 MiB (7%)Title : AC3, 2 ch, 48 kHz, 192 kbps, Original (Line Audio)Language : English
Text #1ID : 5Format : UTF-8Codec ID : S_TEXT/UTF8Codec ID/Info : UTF-8 Plain TextTitle : SRTLanguage : Russian
Text #2ID : 6Format : UTF-8Codec ID : S_TEXT/UTF8Codec ID/Info : UTF-8 Plain TextTitle : SRTLanguage : English
Menu00:00:00.000 : en:Chapter 100:06:22.960 : en:Chapter 200:14:19.520 : en:Chapter 300:20:36.800 : en:Chapter 400:26:03.640 : en:Chapter 500:35:22.600 : en:Chapter 600:41:31.480 : en:Chapter 700:49:18.120 : en:Chapter 800:55:15.800 : en:Chapter 900:57:26.440 : en:Chapter 1001:06:59.200 : en:Chapter 1101:09:40.920 : en:Chapter 1201:15:05.320 : en:Chapter 1301:17:59.600 : en:Chapter 1401:23:00.560 : en:Chapter 15

Данный релиз не будет воспроизводиться на бытовых плеерах не поддерживающих MKV и H.264
Приятного просмотра!Просьба к скачавшим: не уходите с раздачи!pb.wtf



Скачать Рио через торрент http://s012.radikal.ru/i319/1105/a6/908e3112db08.png Скачать, смотреть онлайн Рио бесплантно в хорошем качестве Описание: Попугай-зануда оставляет свою уютную сытую жизнь в клетке и из Миннесоты отправляется в Рио-де-Жанейро, город грез всех и ... 10 10 3
Info! Золотая раздача, скачанное не засчитывается.
Торрент: Зарегистрирован [2011-05-19 17:08] · скачан: 368 раз
Статус: √ проверено
Размер: 1.87 GB
Как cкачать? Как скачать Рио через торрент | UTorrent

% Раздел Тема Автор DL S | L
Иностранные мультфильмы [ 1.46 GB ] Рио / Rio [2011 мультфильм мюзикл HDRip-AVC] DUB [] от R.G. PiratFilms Demonessa Скачать
1 | 0
Порно фильмы с сюжетом [ 1.74 GB ] Маруцелла / Maruzzella [2002 Features All Sex Anal Oral. DVDRip] [email protected] Скачать
1 | 0
Фильмы [HD 720p, 1080p] (Хороший звук DUB, MVO) [ 8.4 GB ] Патриот / The Patriot [2000 военный BDRip 720p] [Театральная версия] -Lexx- Скачать
2 | 1
Фильмы с авторской озвучкой [ 5.8 GB ] Тело / El cuerpo [ 2012 Испания BDRip 720]AVO GEKADOL Скачать
1 | 0
Сборники на DVD и Сиквелы [DVDrip, WEB-DLRip, HDrip, BDRip] [ 5.29 GB ] Трилогия: Звонок Звонок 2 Звонок 0: Рождение / Ringu Ringu 2 Ringu 0: Basudei [1998 1999 2000 Япония DVDRip] AVO + Sub rus + Original -=Cherry=- Скачать
1 | 0
Фильмы до 2000 г. [ 2.52 GB ] Во всём виноват Рио / Blame It on Rio [1984 BDRip AVC by msltel] MVO DVO 2 x AVO msltel Скачать
1 | 0
Фильмы 2010 [ 1.45 GB ] Центурион / Centurion [2010 военный история BDRip] aspace Скачать
1 | 0

28-11-2019 20:33  

Отключить вcю реклaмy на сайте

19-05-2011 18:56 Рио Скачать торрент  

подожду еще...pb.wtf



19-05-2011 19:05 Рио Скачать торрент  

sergunka
что подождёшь?pb.wtf



19-05-2011 23:19 Рио Скачать торрент  

Подскажите если на болванку скинуть , древний пк., читать сможет ??? СПС !!!pb.wtf



    Дорогой пользователь! Огромная просьба, поблагодарите релизера, оцените раздачу и оставьте свои комментарий, если Вы скачали Рио через торрент бесплатно!
    Комментировать посты могут только пользователи прошедшие не сложную регистрацию
    Показать сообщения:    

    Рио через торрент
    Скачать бесплатно Рио
    Рио скачать торрент
    Рио смотреть онлайн
    Cкачать фильм Рио бесплатно
    Рио скачать торрент в хорошем качестве
    Рио смотреть онлайн бесплатно в хорошем качестве


    Вы не можете начинать темы
    Вы не можете отвечать на сообщения
    Вы не можете редактировать свои сообщения
    Вы не можете удалять свои сообщения
    Вы не можете голосовать в опросах
    Вы не можете прикреплять файлы к сообщениям
    Вы можете скачивать файлы