1 сезон

3 сезон

iTunes

1

iTunes

MVO

iTunes

13

1 сезон

RePack

30

Deluxe

pack

Лицензия

ВАЖНО

ИГРА 18+

pack

RePack

MK11

RePack

jed

RePack

fifa19

RePack

RDR2

RePack

NEED FOR SPEED™ PAYBACK

4 сезон

9 сезон

Бесстыжие 9 сезон

Все сериалы

все сериалы на PB.wtf

RePack

FAR CRY 5

Anonymous, доброй ночи, мы катастрофически не успеваем собрать деньги на оплату серверов, помогите нам пожалуйста 5,10,15р., для нас важна любая помощь . В качестве благодарности мы отключим Вам всю рекламу на сайте (укажите свой ник в строку Ваше имя)!

×
  
Magnet ссылка

Затаившиеся 3D / Hidden 3D (Антуан Томас / Antoine Thomas) [2011, Канада, Италия, ужасы, триллер, DVD9] R5 «Кармен Видео» pb.wtf

Затаившиеся 3D через торрент pb.wtf

Размер: 7.34 GB | Добавлен: 10 лет назад | Торрент скачан:68 раз
Скачать  

19-05-2011 17:55 Затаившиеся 3D Скачать торрент  


Затаившиеся 3D / Hidden 3D [2D и 3D версии]
«Есть вещи, о которых лучше забыть…»
Страна: Канада, Италия
Студия: Caramel Film, Caramel Production, Don Carmody Productions, ReDark
Жанр: ужасы, триллер
Год выпуска: 2011
Мировая премьера: 21 апреля 2011
Российская премьера: 21 апреля 2011, «Каравелла DDC» 3D
Дата выхода DVD: 18 мая 2011, «Кармен Видео»
Дата выхода Blu-Ray: 18 мая 2011, «Кармен Видео»
Продолжительность: 01:18:01
Перевод: Профессиональный (дублированный) [Лицензия]
Cубтитры: русские
Оригинальная аудиодорожка: английский
Режиссер: Антуан Томас / Antoine Thomas
В ролях: Шон Клемент, Симонетта Солдер, Джордан Хэйес, Джейсон Бликер, Бьянка Мерджел, Девон Бостик, Эллиотт Ларсон-Гилмор, Аллан Колмэн, Кристина Розато
Описание: Компания молодых людей отправляется на выходные в опустевший монастырь, где некогда располагался загадочный медицинский центр для людей с тяжелыми зависимостями. Вскоре выясняется, что над пациентами тайно проводились бесчеловечные эксперименты, в результате которых изгнанные из людей пороки никуда не исчезли, а затаились в стенах древнего здания и ждут своего часа. Они переполнены жаждой мести и уже никого не выпустят наружу…
Бонусы: Смотрите на DVD
Семпл 2D Семпл 3D

Качество: DVD9 R5
Формат: DVD-Video
Видео кодек: MPEG2
Аудио кодек: AC3
Видео: PAL 16:9 (720x576(0.437)) MPEG Video,25,000 кадр/сек, 4534 Кбит/сек
Аудио #1: Russian (Dolby AC3, 6 ch) 448 Кбит/сек, 48,0 КГц
Аудио #2: English (Dolby AC3, 6 ch) 448 Кбит/сек, 48,0 КГц
Аудио #3: Russian (Dolby AC3, 2 ch) 192 Кбит/сек, 48,0 КГц
Аудио #4: English (Dolby AC3, 2 ch) 192 Кбит/сек, 48,0 КГц



Title: Мой диск
Size: 7.34 Gb ( 7 698 548 KBytes ) - DVD-9
Enabled regions: 1, 2, 3, 4, 5, 6, 7, 8

VTS_01 :
Play Length: 00:00:01+01:18:01
Video: PAL 16:9 (720x576) VBR, Auto Letterboxed
Audio:
Russian (Dolby AC3, 6 ch)
English (Dolby AC3, 6 ch)
Russian (Dolby AC3, 2 ch)
English (Dolby AC3, 2 ch)
Subtitles:
Russian

VTS_02 :
Play Length: 00:00:01+00:00:05+00:00:13
Video: PAL 16:9 (720x576) VBR, Auto Letterboxed
Audio:
Russian (Dolby AC3, 6 ch)

VTS_03 :
Play Length: 00:00:01+00:03:51
Video: PAL 16:9 (720x576) VBR, Auto Letterboxed
Audio:
Russian (Dolby AC3, 2 ch)

VTS_04 :
Play Length: 00:00:01+00:02:07+00:02:29+00:01:36+00:01:00+00:01:58+00:01:53+00:02:19
Video: PAL 16:9 (720x576) VBR, Auto Letterboxed
Audio:
Russian (Dolby AC3, 2 ch)
Общее
Полное имя : F:\Новинки 2011\Zataivshiesya.3D.2011.DVD9\VIDEO_TS\VTS_01_1.VOB
Формат : MPEG-PS
Размер файла : 1024 Мбайт
Продолжительность : 24 м.
Общий поток : 5932 Кбит/сек

Видео
Идентификатор : 224 (0xE0)
Формат : MPEG Video
Версия формата : Version 2
Профиль формата : Main@Main
Параметр BVOP формата : Да
Параметр матрицы формата : По умолчанию
Продолжительность : 24 м.
Вид битрейта : Постоянный
Битрейт : 4534 Кбит/сек
Номинальный битрейт : 6000 Кбит/сек
Ширина : 720 пикс.
Высота : 576 пикс.
Соотношение сторон : 16:9
Частота кадров : 25,000 кадр/сек
Стандарт вещания : PAL
Цветовое пространство : YUV
Подвыборка цветности : 4:2:0
Битовая глубина : 8 бит
Тип развёртки : Чересстрочная
Порядок развёртки : Нижнее поле первое
Метод сжатия : С потерями
Бит/(Пиксели*Кадры) : 0.437
Размер потока : 783 Мбайт (76%)

Аудио #1
Идентификатор : 189 (0xBD)-128 (0x80)
Формат : AC-3
Формат/Информация : Audio Coding 3
Расширение режима : CM (complete main)
Режим смешивания : DVD-Video
Продолжительность : 24 м.
Вид битрейта : Постоянный
Битрейт : 448 Кбит/сек
Канал(ы) : 6 канала(ов)
Расположение каналов : Front: L C R, Side: L R, LFE
Частота : 48,0 КГц
Битовая глубина : 16 бит
Метод сжатия : С потерями
Размер потока : 77,3 Мбайт (8%)

Аудио #2
Идентификатор : 189 (0xBD)-129 (0x81)
Формат : AC-3
Формат/Информация : Audio Coding 3
Расширение режима : CM (complete main)
Режим смешивания : DVD-Video
Продолжительность : 24 м.
Вид битрейта : Постоянный
Битрейт : 448 Кбит/сек
Канал(ы) : 6 канала(ов)
Расположение каналов : Front: L C R, Side: L R, LFE
Частота : 48,0 КГц
Битовая глубина : 16 бит
Метод сжатия : С потерями
Размер потока : 77,3 Мбайт (8%)

Аудио #3
Идентификатор : 189 (0xBD)-130 (0x82)
Формат : AC-3
Формат/Информация : Audio Coding 3
Расширение режима : CM (complete main)
Режим смешивания : DVD-Video
Продолжительность : 24 м.
Вид битрейта : Постоянный
Битрейт : 192 Кбит/сек
Канал(ы) : 2 канала(ов)
Расположение каналов : Front: L R
Частота : 48,0 КГц
Битовая глубина : 16 бит
Метод сжатия : С потерями
Размер потока : 33,1 Мбайт (3%)

Аудио #4
Идентификатор : 189 (0xBD)-131 (0x83)
Формат : AC-3
Формат/Информация : Audio Coding 3
Расширение режима : CM (complete main)
Режим смешивания : DVD-Video
Продолжительность : 24 м.
Вид битрейта : Постоянный
Битрейт : 192 Кбит/сек
Канал(ы) : 2 канала(ов)
Расположение каналов : Front: L R
Частота : 48,0 КГц
Битовая глубина : 16 бит
Метод сжатия : С потерями
Размер потока : 33,1 Мбайт (3%)

Текст
Идентификатор : 189 (0xBD)-32 (0x20)
Формат : RLE
Формат/Информация : Run-length encoding
Режим смешивания : DVD-Video
Продолжительность : 24 м.










pb.wtf



Скачать Затаившиеся 3D через торрент http://i3.imageban.ru/out/2011/05/19/ccf24232d0ae14b4f408bbc3e89715cc.jpg Скачать фильм Затаившиеся 3D через торрент бесплантно в хорошем качестве Описание: Компания молодых людей отправляется на выходные в опустевший монастырь, где некогда располагался загадочный медицинский центр для ... 4.5 10 8
Info! Золотая раздача, скачанное не засчитывается.
Торрент: Зарегистрирован [2011-05-19 17:55] · скачан: 68 раз
Статус: √ проверено
Размер: 7.34 GB
Как cкачать? Как скачать Затаившиеся 3D через торрент | UTorrent

28-11-2019 20:33  

Отключить всю рекламу на сайте

19-05-2011 18:47 Затаившиеся 3D Скачать торрент  

класс спасибо,посмотрю ужастик в 3Д!
блин а сэмпл 3Д заканчивается в такой неподходящий момент! pb.wtf



    Дорогой пользователь! Огромная просьба, поблагодарите релизера, оцените раздачу и оставьте свои комментарий, если Вы скачали Затаившиеся 3D через торрент бесплатно! Внесите свою лепту в развитие PiratBit!
    Комментировать посты могут только пользователи прошедшие не сложную регистрацию
    Показать сообщения:    

    Затаившиеся 3D через торрент
    Скачать бесплатно Затаившиеся 3D
    Затаившиеся 3D скачать торрент
    Затаившиеся 3D смотреть онлайн
    Cкачать фильм Затаившиеся 3D бесплатно
    Затаившиеся 3D скачать торрент в хорошем качестве
    Затаившиеся 3D смотреть онлайн бесплатно в хорошем качестве


    Вы не можете начинать темы
    Вы не можете отвечать на сообщения
    Вы не можете редактировать свои сообщения
    Вы не можете удалять свои сообщения
    Вы не можете голосовать в опросах
    Вы не можете прикреплять файлы к сообщениям
    Вы можете скачивать файлы