1 сезон

3 сезон

iTunes

1

iTunes

MVO

iTunes

13

1 сезон

RePack

30

Deluxe

pack

Лицензия

ВАЖНО

ИГРА 18+

pack

RePack

MK11

RePack

jed

RePack

fifa19

RePack

RDR2

RePack

NEED FOR SPEED™ PAYBACK

4 сезон

9 сезон

Бесстыжие 9 сезон

Все сериалы

все сериалы на PB.wtf

RePack

FAR CRY 5

Anonymous, добрый день, мы катастрофически не успеваем собрать деньги на оплату серверов, помогите нам пожалуйста 5,10,15р., для нас важна любая помощь . В качестве благодарности мы отключим Вам всю рекламу на сайте (укажите свой ник в строку Ваше имя)!

×
  
Magnet ссылка

Воды слонам! / Water for Elephants (Френсис Лоуренс / Francis Lawrence) [2011, США, драма, DVD9] R5 «Двадцатый Век Фокс СНГ» pb.wtf

Воды слонам! через торрент pb.wtf

Размер: 4.62 GB | Добавлен: 10 лет назад | Торрент скачан:120 раз
Скачать  

19-05-2011 20:20 Воды слонам! Скачать торрент  


Воды слонам! / Water for Elephants
«Жизнь - это самое удивительное шоу на свете»
Страна: США
Студия: 3 Arts Entertainment, Crazy Horse Effects, Flashpoint Entertainment, Fox 2000 Pictures
Жанр: драма
Год выпуска: 2011
Мировая премьера: 15 апреля 2011
Российская премьера: 21 апреля 2011, «Фокс»
Дата выхода DVD: 19 мая 2011, «Двадцатый Век Фокс СНГ»
Дата выхода Blu-Ray: 15 сентября 2011, «Двадцатый Век Фокс СНГ»
Продолжительность: 01:55:31
Перевод: Профессиональный (дублированный) [Лицензия]
Cубтитры: русские, украинские
Режиссер: Френсис Лоуренс / Francis Lawrence
В ролях: Роберт Паттинсон, Риз Уизерспун, Кристоф Вальц, Пол Шнайдер, Джим Нортон, Марк Повинелли, Ричард Брэйк, Стивен Тейлор, Кен Фори, Хэл Холбрук
Описание: Времена Великой депрессии. Студент-ветеринар Якоб бросает учебу после того, как его родители погибают, и присоединяется к «Benzini Brothers», самому грандиозному цирковому шоу на Земле. Там он начинает работать ветеринаром, а заодно и влюбляется в прекрасную наездницу Марлену, которая, правда, замужем за Августом, харизматичным, но жестоким дрессировщиком.
Бонусы: Фотогалерея, смотрите в кино и на DVD

Качество: DVD9 R5
Формат: DVD-Video
Видео кодек: MPEG2
Аудио кодек: AC3 + DTS
Видео: PAL 16:9 (720x576(0.385)) MPEG Video,25,000 кадр/сек, 3995 Кбит/сек
Аудио #1: Russian (Dolby AC3, 6 ch) 384 Кбит/сек, 48,0 КГц
Аудио #2: Russian (DTS, 6 ch) 768 Кбит/сек, 48,0 КГц



Title: Мой диск
Size: 4.62 Gb ( 4 843 544 KBytes ) - DVD-9
Enabled regions: 1, 2, 3, 4, 5, 6, 7, 8

VTS_01 :
Play Length: 01:55:31
Video: PAL 16:9 (720x576) VBR, Auto Pan&Scan
Audio:
Russian (Dolby AC3, 6 ch)
Russian (DTS, 6 ch)
Subtitles:
Russian
Ukrainian

VTS_02 :
Play Length: 00:00:27
Video: PAL 16:9 (720x576) VBR, Auto Pan&Scan
Audio:
Russian (Dolby AC3, 6 ch)

VTS_03 :
Play Length: 00:01:02
Video: PAL 16:9 (720x576) VBR, Auto Pan&Scan
Audio:
English (Dolby AC3, 2 ch)
Subtitles:
Russian
Ukrainian

VTS_04 :
Play Length: 00:06:37
Video: PAL 16:9 (720x576) VBR, Auto Pan&Scan
Audio:
Not specified (Dolby AC3, 6 ch)
Not specified (Dolby AC3, 6 ch)
Russian (Dolby AC3, 2 ch)
Subtitles:
Russian
Ukrainian
Общее
Полное имя : F:\Новинки 2011\Vodi.slonam.2011.DVD9\VIDEO_TS\VTS_01_1.VOB
Формат : MPEG-PS
Размер файла : 1024 Мбайт
Продолжительность : 27 м.
Общий поток : 5237 Кбит/сек

Видео
Идентификатор : 224 (0xE0)
Формат : MPEG Video
Версия формата : Version 2
Профиль формата : Main@Main
Параметр BVOP формата : Да
Параметр матрицы формата : По умолчанию
Параметры GOP формата : M=3, N=15
Продолжительность : 27 м.
Вид битрейта : Переменный
Битрейт : 3995 Кбит/сек
Номинальный битрейт : 7500 Кбит/сек
Ширина : 720 пикс.
Высота : 576 пикс.
Соотношение сторон : 16:9
Частота кадров : 25,000 кадр/сек
Стандарт вещания : PAL
Цветовое пространство : YUV
Подвыборка цветности : 4:2:0
Битовая глубина : 8 бит
Тип развёртки : Чересстрочная
Порядок развёртки : Верхнее поле первое
Метод сжатия : С потерями
Бит/(Пиксели*Кадры) : 0.385
Размер потока : 781 Мбайт (76%)

Аудио #1
Идентификатор : 189 (0xBD)-128 (0x80)
Формат : AC-3
Формат/Информация : Audio Coding 3
Расширение режима : CM (complete main)
Режим смешивания : DVD-Video
Продолжительность : 27 м.
Вид битрейта : Постоянный
Битрейт : 384 Кбит/сек
Канал(ы) : 6 канала(ов)
Расположение каналов : Front: L C R, Side: L R, LFE
Частота : 48,0 КГц
Битовая глубина : 16 бит
Метод сжатия : С потерями
Задержка видео : -80 мс.
Размер потока : 75,1 Мбайт (7%)

Аудио #2
Идентификатор : 189 (0xBD)-137 (0x89)
Формат : DTS
Формат/Информация : Digital Theater Systems
Режим смешивания : DVD-Video
Продолжительность : 27 м.
Вид битрейта : Постоянный
Битрейт : 755 Кбит/сек
Канал(ы) : 6 канала(ов)
Расположение каналов : Front: L C R, Side: L R, LFE
Частота : 48,0 КГц
Битовая глубина : 24 бит
Метод сжатия : С потерями
Задержка видео : -80 мс.
Размер потока : 148 Мбайт (14%)










pb.wtf



Скачать Воды слонам! через торрент http://i2.imageban.ru/out/2011/05/19/e60c8cb93806dfc5eb6dbe4281dc76af.jpg Скачать фильм Воды слонам! через торрент бесплантно в хорошем качестве Описание: Времена Великой депрессии. Студент-ветеринар Якоб бросает учебу после того, как его родители погибают, и присоединяется к ... 10 10 1
Info! Золотая раздача, скачанное не засчитывается.
Торрент: Зарегистрирован [2011-05-19 20:20] · скачан: 120 раз
Статус: √ проверено
Размер: 4.62 GB
Как cкачать? Как скачать Воды слонам! через торрент | UTorrent

28-11-2019 20:33  

Отключить всю рекламу на сайте

19-05-2011 21:30 Воды слонам! Скачать торрент  

Спсибо!pb.wtf



20-05-2011 07:38 Воды слонам! Скачать торрент  

Спасибо!pb.wtf



    Дорогой пользователь! Огромная просьба, поблагодарите релизера, оцените раздачу и оставьте свои комментарий, если Вы скачали Воды слонам! через торрент бесплатно! Внесите свою лепту в развитие PiratBit!
    Комментировать посты могут только пользователи прошедшие не сложную регистрацию
    Показать сообщения:    

    Воды слонам! через торрент
    Скачать бесплатно Воды слонам!
    Воды слонам! скачать торрент
    Воды слонам! смотреть онлайн
    Cкачать фильм Воды слонам! бесплатно
    Воды слонам! скачать торрент в хорошем качестве
    Воды слонам! смотреть онлайн бесплатно в хорошем качестве


    Вы не можете начинать темы
    Вы не можете отвечать на сообщения
    Вы не можете редактировать свои сообщения
    Вы не можете удалять свои сообщения
    Вы не можете голосовать в опросах
    Вы не можете прикреплять файлы к сообщениям
    Вы можете скачивать файлы