1 сезон

3 сезон

iTunes

1

Line

MVO

iTunes

13

1 сезон

RePack

30

Deluxe

pack

Лицензия

ВАЖНО

ИГРА 18+

pack

RePack

MK11

RePack

jed

RePack

fifa19

RePack

RDR2

RePack

NEED FOR SPEED™ PAYBACK

4 сезон

9 сезон

Бесстыжие 9 сезон

Все сериалы

все сериалы на PB.wtf

RePack

FAR CRY 5

Anonymous, доброй ночи, мы катастрофически не успеваем собрать деньги на оплату серверов, помогите нам пожалуйста 5,10,15р., для нас важна любая помощь . В качестве благодарности мы отключим Вам всю рекламу на сайте (укажите свой ник в строку Ваше имя)!

×
  
Magnet ссылка

Соседка по комнате / The Roommate (Кристиан Е. Кристиансен / Christian E. Christiansen) [2011, США, триллер, драма, DVD9] R5 «Columbia/Sonpb.wtf

Соседка по комнате через торрент pb.wtf

Размер: 6.17 GB | Добавлен: 10 лет назад | Торрент скачан:27 раз
Скачать  

20-05-2011 08:02 Соседка по комнате Скачать торрент  


Соседка по комнате / The Roommate
«2,000 colleges. 8 million roommates. Which one will you get?»
Страна: США
Студия: Screen Gems, Vertigo Entertainment
Жанр: триллер, драма
Год выпуска: 2011
Мировая премьера: 4 февраля 2011
Дата выхода DVD: 19 мая 2011, «Columbia/Sony»
Дата выхода Blu-Ray: 2 июня 2011, «Columbia/Sony»
Продолжительность: 01:27:32
Перевод: Профессиональный (многоголосый закадровый) [Лицензия]
Cубтитры: английские, польские, венгерские, чешские, арабские, болгарские, хорватские, эстонские, греческие, иврит, хинди, исландские, литовские, португальские, румынские, сербские, словацкие, словенские, турецкие, украинские
Оригинальная аудиодорожка: английский
Режиссер: Кристиан Е. Кристиансен / Christian E. Christiansen
В ролях: Лейтон Мистер, Минка Келли, Кэм Жиганде, Элисон Мичалка, Дэннил Харрис, Фрэнсис Фишер, Томас Арана, Билли Зейн, Нина Добрев, Мэтт Лантер
Описание: Выпускница Сара поступает в колледж. Там она знакомится со своей новой соседкой по комнате — Ребеккой. Девушки становятся настоящими подругами. Однако позже у Сары появляются новые друзья и молодой человек, вследствие чего девушка забывает про Ребекку. Вскоре с друзьями Сары начинают происходить несчастные случаи. После собственного расследования Сара понимает, что все ужасные события, происходящие с ее друзьями — это дело рук Ребекки, которая, как оказалось, страдает психическими расстройствами. Теперь ей нужно спасаться как можно скорее, ведь кто знает, что взбредет в голову ее соседке…
Доп. информация: Аудиокомментарии создателей, Удаленные сцены, Трейлеры

Качество: DVD9 R5
Формат: DVD-Video
Видео кодек: MPEG2
Аудио кодек: AC3
Видео: PAL 16:9 (720x576(0.590)) MPEG Video,25,000 кадр/сек, 6121 Кбит/сек
Аудио #1: English (Dolby AC3, 6 ch) 448 Кбит/сек, 48,0 КГц
Аудио #2: Czech(Ceske) (Dolby AC3, 6 ch) 384 Кбит/сек, 48,0 КГц
Аудио #3: Magyar (Dolby AC3, 6 ch) 384 Кбит/сек, 48,0 КГц
Аудио #4: Polish (Dolby AC3, 6 ch) 384 Кбит/сек, 48,0 КГц
Аудио #5: Russian (Dolby AC3, 6 ch) 384 Кбит/сек, 48,0 КГц
Аудио #6: English (Dolby AC3, 2 ch) 192 Кбит/сек, 48,0 КГц



Title: Мой диск
Size: 6.17 Gb ( 6 474 392 KBytes ) - DVD-9
Enabled regions: 1, 2, 3, 4, 5, 6, 7, 8

VTS_01 :
Play Length: 01:27:32
Video: PAL 16:9 (720x576) VBR, Auto Letterboxed
Audio:
English (Dolby AC3, 6 ch)
Czech(Ceske) (Dolby AC3, 6 ch)
Magyar (Dolby AC3, 6 ch)
Polish (Dolby AC3, 6 ch)
Russian (Dolby AC3, 6 ch)
English (Dolby AC3, 2 ch)
Subtitles:
English
Arabic
Bulgarian
Hrvatski
Czech(Ceske)
Estonian
Greek
Hebrew
Hindi
Magyar
Islenska
Lithuanian
Polish
Portugues
Romanian
Russian
Serbian
Slovak
Slovenian
Turkish
Ukrainian
English

VTS_02 :
Play Length: 00:06:14+00:01:56+00:00:30+00:00:33+00:00:39+00:00:53+00:01:13+00:01:06
Video: PAL 4:3 (720x576) VBR
Audio:
English (Dolby AC3, 2 ch)
Subtitles:
English

VTS_03 :
Play Length: 00:00:10+00:00:15+00:00:12+00:00:08+00:00:39+00:00:38+00:00:05
Video: PAL 16:9 (720x576) VBR, Auto Letterboxed
Audio:
Not specified (Dolby AC3, 2 ch)

VTS_04 :
Play Length: 00:00:05
Video: PAL 16:9 (720x576) VBR, Auto Letterboxed
Audio:
Not specified (Dolby AC3, 2 ch)

VTS_05 :
Play Length:
Video: PAL 16:9 (720x576) VBR, Auto Letterboxed

VTS_06 :
Play Length:
Video: PAL 16:9 (720x576) VBR, Auto Pan&Scan

VTS_07 :
Play Length: 00:00:17
Video: PAL 4:3 (720x576) VBR
Audio:
Not specified (Dolby AC3, 2 ch)

VTS_08 :
Play Length:
Video: PAL 16:9 (720x576) VBR, Auto Letterboxed

VTS_09 :
Play Length:
Video: PAL 16:9 (720x576) VBR, Auto Letterboxed

VTS_10 :
Play Length: 00:13:57
Video: PAL 16:9 (720x576) VBR, Auto Letterboxed
Audio:
English (Dolby AC3, 6 ch)

VTS_11 :
Play Length:
Video: PAL 16:9 (720x576) VBR, Auto Letterboxed
Общее
Полное имя : F:\Новинки 2011\Sosedka.po.komnate.2011.DVD9\VIDEO_TS\VTS_01_1.VOB
Формат : MPEG-PS
Размер файла : 1024 Мбайт
Продолжительность : 16 м.
Общий поток : 8465 Кбит/сек

Видео
Идентификатор : 224 (0xE0)
Формат : MPEG Video
Версия формата : Version 2
Профиль формата : Main@Main
Параметр BVOP формата : Да
Параметр матрицы формата : По умолчанию
Продолжительность : 16 м.
Вид битрейта : Переменный
Битрейт : 6121 Кбит/сек
Номинальный битрейт : 9800 Кбит/сек
Ширина : 720 пикс.
Высота : 576 пикс.
Соотношение сторон : 16:9
Частота кадров : 25,000 кадр/сек
Стандарт вещания : PAL
Цветовое пространство : YUV
Подвыборка цветности : 4:2:0
Битовая глубина : 8 бит
Тип развёртки : Прогрессивная
Порядок развёртки : Верхнее поле первое
Метод сжатия : С потерями
Бит/(Пиксели*Кадры) : 0.590
Размер потока : 740 Мбайт (72%)

Аудио #1
Идентификатор : 189 (0xBD)-128 (0x80)
Формат : AC-3
Формат/Информация : Audio Coding 3
Расширение режима : CM (complete main)
Режим смешивания : DVD-Video
Продолжительность : 16 м.
Вид битрейта : Постоянный
Битрейт : 448 Кбит/сек
Канал(ы) : 6 канала(ов)
Расположение каналов : Front: L C R, Side: L R, LFE
Частота : 48,0 КГц
Битовая глубина : 16 бит
Метод сжатия : С потерями
Размер потока : 54,2 Мбайт (5%)

Аудио #2
Идентификатор : 189 (0xBD)-129 (0x81)
Формат : AC-3
Формат/Информация : Audio Coding 3
Расширение режима : CM (complete main)
Режим смешивания : DVD-Video
Продолжительность : 16 м.
Вид битрейта : Постоянный
Битрейт : 384 Кбит/сек
Канал(ы) : 6 канала(ов)
Расположение каналов : Front: L C R, Side: L R, LFE
Частота : 48,0 КГц
Битовая глубина : 16 бит
Метод сжатия : С потерями
Размер потока : 46,4 Мбайт (5%)

Аудио #3
Идентификатор : 189 (0xBD)-130 (0x82)
Формат : AC-3
Формат/Информация : Audio Coding 3
Расширение режима : CM (complete main)
Режим смешивания : DVD-Video
Продолжительность : 16 м.
Вид битрейта : Постоянный
Битрейт : 384 Кбит/сек
Канал(ы) : 6 канала(ов)
Расположение каналов : Front: L C R, Side: L R, LFE
Частота : 48,0 КГц
Битовая глубина : 16 бит
Метод сжатия : С потерями
Размер потока : 46,4 Мбайт (5%)

Аудио #4
Идентификатор : 189 (0xBD)-131 (0x83)
Формат : AC-3
Формат/Информация : Audio Coding 3
Расширение режима : CM (complete main)
Режим смешивания : DVD-Video
Продолжительность : 16 м.
Вид битрейта : Постоянный
Битрейт : 384 Кбит/сек
Канал(ы) : 6 канала(ов)
Расположение каналов : Front: L C R, Side: L R, LFE
Частота : 48,0 КГц
Битовая глубина : 16 бит
Метод сжатия : С потерями
Размер потока : 46,4 Мбайт (5%)

Аудио #5
Идентификатор : 189 (0xBD)-132 (0x84)
Формат : AC-3
Формат/Информация : Audio Coding 3
Расширение режима : CM (complete main)
Режим смешивания : DVD-Video
Продолжительность : 16 м.
Вид битрейта : Постоянный
Битрейт : 384 Кбит/сек
Канал(ы) : 6 канала(ов)
Расположение каналов : Front: L C R, Side: L R, LFE
Частота : 48,0 КГц
Битовая глубина : 16 бит
Метод сжатия : С потерями
Размер потока : 46,4 Мбайт (5%)

Аудио #6
Идентификатор : 189 (0xBD)-133 (0x85)
Формат : AC-3
Формат/Информация : Audio Coding 3
Профиль формата : Dolby Digital
Расширение режима : CM (complete main)
Режим смешивания : DVD-Video
Продолжительность : 16 м.
Вид битрейта : Постоянный
Битрейт : 192 Кбит/сек
Канал(ы) : 2 канала(ов)
Расположение каналов : Front: L R
Частота : 48,0 КГц
Битовая глубина : 16 бит
Метод сжатия : С потерями
Размер потока : 23,2 Мбайт (2%)










pb.wtf



Скачать Соседка по комнате через торрент http://i1.imageban.ru/out/2011/05/18/b42cd587808c98044a0cd6353009802b.jpg Скачать фильм Соседка по комнате через торрент бесплантно в хорошем качестве Описание: Выпускница Сара поступает в колледж. Там она знакомится со своей новой соседкой по комнате — Ребеккой. Девушки становятся ... 5 10 5
Info! Золотая раздача, скачанное не засчитывается.
Торрент: Зарегистрирован [2011-05-20 08:02] · скачан: 27 раз
Статус: √ проверено
Размер: 6.17 GB
Как cкачать? Как скачать Соседка по комнате через торрент | UTorrent

28-11-2019 20:33  

Отключить всю рекламу на сайте

    Дорогой пользователь! Огромная просьба, поблагодарите релизера, оцените раздачу и оставьте свои комментарий, если Вы скачали Соседка по комнате через торрент бесплатно! Внесите свою лепту в развитие PiratBit!
    Комментировать посты могут только пользователи прошедшие не сложную регистрацию
    Показать сообщения:    

    Соседка по комнате через торрент
    Скачать бесплатно Соседка по комнате
    Соседка по комнате скачать торрент
    Соседка по комнате смотреть онлайн
    Cкачать фильм Соседка по комнате бесплатно
    Соседка по комнате скачать торрент в хорошем качестве
    Соседка по комнате смотреть онлайн бесплатно в хорошем качестве


    Вы не можете начинать темы
    Вы не можете отвечать на сообщения
    Вы не можете редактировать свои сообщения
    Вы не можете удалять свои сообщения
    Вы не можете голосовать в опросах
    Вы не можете прикреплять файлы к сообщениям
    Вы можете скачивать файлы