Всегда рабочее зеркало без VPN и Proxy просто перед .vidak.icu напиши любое слово или цифру, Пример http://xshs.vidak.icu

MVO

2 сезон

2 сезон

1

1 сезон

iTunes

2 сезон

13

1 сезон

Deluxe

pack

Рекомендуем

Пиратка

30

ВАЖНО

RePack

MK11

RePack

jed

RePack

fifa19

RePack

RDR2

RePack

NEED FOR SPEED™ PAYBACK

Кинопоиск HD

6 сезон

 Острые козырьки 6 сезон

Все сериалы

все сериалы на PB.wtf

RePack

FAR CRY 5

Anonymous, нам критически не хватает 5601 руб. на оплату серверов и переферии за Апрель, помоги нам пожалуйста, вся надежда только на тебя. В благодарность мы отключим тебе всю рекламу на сайте!

×
  
Magnet ссылка

Суррогаты / Surrogates (Джонатан Мостоу) [2009 г., фантастика, боевик, триллер, BDRip (720p)] pb.wtf

Суррогаты через торрент pb.wtf

Размер: 4.36 GB | Добавлен: 10 лет назад | Торрент скачан:342 раза
Смотреть онлайн Суррогаты | Скачать    Ребята, помогите собрать деньги на оплату серверов!!!

22-05-2011 10:02 Суррогаты Скачать торрент  

Суррогаты
Surrogates




Год выпуска: 2009
Страна: США
Жанр: фантастика, боевик, триллер
Продолжительность: 01:28:36
Перевод: Профессиональный (полное дублирование)

Режиссер: Джонатан Мостоу

В ролях: Брюс Уиллис, Рада Митчел, Розамунд Пайк, Boris Kodjoe, Джеймс Джинти, Джеймс Кромуэлл, Винг Рэймс, Джек Ноузворфи, Девин Рэтрей, Michael Cudlitz, Джеффри Де Серрано, Хелена Мэттссон, Майкл Филлип, Дэнни Ф Смит, Брайан А. Пэрриш, Дженни Элден, Shane Dzicek, Andrew Haserlat, Джастин Гудрич, Lisa Jenai Hernandez, Томас `Kirk` Хоукинс

Описание: Действие разворачивается в будущем, в 2057 году, — когда люди практически перестанут общаться между собой и полностью возложат эту функцию на плечи роботов-заменителей. Они сильнее, моложе, привлекательнее своих обладателей и даже могут быть другого пола. Но находится террорист, начинающий уничтожать идеальных андроидов. Полицейскому Тому Гриру предстоит узнать, какие причины движут злоумышленником, лишающим жизни людей и их марионеток, технически и физически совершенных.

Семпл

Качество: BDRip (720p)
Формат: MKV
Видео кодек: AVC
Аудио кодек: AC3
Видео: AVC , 6 665 Kbps, 1280 x 534 pixels, 23.976 fps, Bits/(Pixel*Frame) : 0.407
Аудио: AC-3 , 384 Kbps, 6 channels, 48.0 KHz
Complete name Surrogaty.BDRip.720p.DVD5.-HQ-films\Surrogaty.BDRip.720p.DVD5.-HQ-films.mkv
Format : Matroska
File size : 4.36 GiB
Duration : 1h 28mn
Overall bit rate : 7 050 Kbps
Encoded date : UTC 2010-02-01 15:27:32
Writing application : mkvmerge v3.0.0 ('Hang up your Hang-Ups') built on Dec 12 2009 15:20:35
Writing library : libebml v0.7.9 + libmatroska v0.8.1

Video
ID : 1
Format : AVC
Format/Info : Advanced Video Codec
Format profile : High@L4.1
Format settings, CABAC : Yes
Format settings, ReFrames : 12 frames
Codec ID : V_MPEG4/ISO/AVC
Duration : 1h 28mn
Bit rate : 6 665 Kbps
Width : 1 280 pixels
Height : 534 pixels
Display aspect ratio : 2.35:1
Frame rate : 23.976 fps
Color space : YUV
Chroma subsampling : 4:2:0
Bit depth : 8 bits
Scan type : Progressive
Bits/(Pixel*Frame) : 0.407
Stream size : 4.04 GiB (93%)
Title : Surrogaty.BDRip.720p.DVD5.-HQ-films
Writing library : x264 core 80 r1376M 3feaec2
Encoding settings : cabac=1 / ref=12 / deblock=1:-3:-3 / analyse=0x3:0x133 / me=hex / subme=9 / psy=1 / psy_rd=1.0:0.0 / mixed_ref=1 / me_range=16 / chroma_me=1 / trellis=2 / 8x8dct=1 / cqm=0 / deadzone=21,11 / fast_pskip=1 / chroma_qp_offset=-4 / threads=6 / sliced_threads=0 / nr=0 / decimate=1 / mbaff=0 / constrained_intra=0 / bframes=3 / b_pyramid=2 / b_adapt=2 / b_bias=0 / direct=1 / wpredb=1 / wpredp=2 / keyint=250 / keyint_min=25 / scenecut=40 / rc_lookahead=40 / rc=2pass / mbtree=1 / bitrate=6665 / ratetol=1.0 / qcomp=0.60 / qpmin=10 / qpmax=51 / qpstep=4 / cplxblur=20.0 / qblur=0.5 / ip_ratio=1.40 / aq=1:1.00
Language : English

Audio
ID : 2
Format : AC-3
Format/Info : Audio Coding 3
Mode extension : CM (complete main)
Codec ID : A_AC3
Duration : 1h 28mn
Bit rate mode : Constant
Bit rate : 384 Kbps
Channel(s) : 6 channels
Channel positions : Front: L C R, Side: L R, LFE
Sampling rate : 48.0 KHz
Bit depth : 16 bits
Stream size : 243 MiB (5%)
Title : Dub
Language : Russian
pb.wtf



Скачать Суррогаты через торрент http://i11.fastpic.ru/big/2011/0522/08/38a7fb0a830ddc6129e813aaa8f02108.png Скачать, смотреть онлайн Суррогаты бесплантно в хорошем качестве Описание: Действие разворачивается в будущем, в 2057 году, — когда люди практически перестанут общаться между собой и полностью возложат ... 10 10 4
Info! Золотая раздача, скачанное не засчитывается.
Торрент: Зарегистрирован [2011-05-22 10:02] · скачан: 342 раз
Статус: √ проверено
Размер: 4.36 GB
Как cкачать? Как скачать Суррогаты через торрент | UTorrent

% Раздел Тема Автор DL S | L
Фильмы с авторской озвучкой [ 2.53 GB ] Суррогаты / Surrogates [2009 BDRip 1080p] [AVO] killermax2013 Скачать
1 | 0
Фильмы (WEB-DL 720p, 1080p) [ 8.19 GB ] Суррогаты / Surrogates [2009 WEB-DL 1080p] [Open Matte] + [AVO] killermax2013 Скачать
1 | 0
Фильмы (Blu-ray, BD-Remux, HDDVD) [ 28.22 GB ] Суррогаты / Surrogates [2009 Blu-ray 1080p] DUB bober100 Скачать
1 | 0
Фильмы [HD 720p, 1080p] (Хороший звук DUB, MVO) [ 8.23 GB ] Суррогаты / Surrogates [2009 BDRip 1080p ] от R.G. HD-Films Seedtank Скачать
1 | 0
Фильмы 2009 [ 1.36 GB ] Суррогаты / Surrogates [2009 HDRip] IceDevil71 Скачать
1 | 0
Фильмы (Blu-ray, BD-Remux, HDDVD) [ 18.51 GB ] Суррогаты / Surrogates [1080p] [2009 BD Remux] NarutoSasuke Скачать
1 | 0
Комиксы [ 14 MB ] The Surrogates / Суррогаты #1 [Rus 2005] IceDevil71 Скачать
1 | 0

28-11-2019 20:33  

Отключить всю рекламу на сайте

23-07-2011 17:28 Суррогаты Скачать торрент  

дайти скоростиpb.wtf



    Дорогой пользователь! Огромная просьба, поблагодарите релизера, оцените раздачу и оставьте свои комментарий, если Вы скачали Суррогаты через торрент бесплатно!
    Комментировать посты могут только пользователи прошедшие не сложную регистрацию
    Показать сообщения:    

    Суррогаты через торрент
    Скачать бесплатно Суррогаты
    Суррогаты скачать торрент
    Суррогаты смотреть онлайн
    Cкачать фильм Суррогаты бесплатно
    Суррогаты скачать торрент в хорошем качестве
    Суррогаты смотреть онлайн бесплатно в хорошем качестве


    Вы не можете начинать темы
    Вы не можете отвечать на сообщения
    Вы не можете редактировать свои сообщения
    Вы не можете удалять свои сообщения
    Вы не можете голосовать в опросах
    Вы не можете прикреплять файлы к сообщениям
    Вы можете скачивать файлы