1 сезон

3 сезон

iTunes

1

Line

MVO

iTunes

13

1 сезон

RePack

30

Deluxe

pack

Лицензия

ВАЖНО

ИГРА 18+

pack

RePack

MK11

RePack

jed

RePack

fifa19

RePack

RDR2

RePack

NEED FOR SPEED™ PAYBACK

4 сезон

9 сезон

Бесстыжие 9 сезон

Все сериалы

все сериалы на PB.wtf

RePack

FAR CRY 5

Anonymous, добрый вечер, мы катастрофически не успеваем собрать деньги на оплату серверов, помогите нам пожалуйста 5,10,15р., для нас важна любая помощь . В качестве благодарности мы отключим Вам всю рекламу на сайте (укажите свой ник в строку Ваше имя)!

×
  
Magnet ссылка

Потустороннее / Hereafter (Клинт Иствуд / Clint Eastwood) [2010, США, фэнтези, драма, DVD9] R5 «CP-Digital» pb.wtf

Потустороннее через торрент pb.wtf

Размер: 6.01 GB | Добавлен: 10 лет назад | Торрент скачан:73 раза
Скачать  

25-05-2011 15:44 Потустороннее Скачать торрент  


Потустороннее / Hereafter
«Touched by death. Changed by live.»
Страна: США
Студия: Amblin Entertainment, Malpaso Productions, The Kennedy/Marshall Company, Warner Bros. Pictures
Жанр: фэнтези, драма
Год выпуска: 2010
Мировая премьера: 12 сентября 2010
Дата выхода DVD: 4 августа 2011, «CP-Digital»
Продолжительность: 02:03:44
Перевод: Профессиональный (многоголосый закадровый) [Лицензия]
Cубтитры: русские, английские, украинские
Оригинальная аудиодорожка: английский
Режиссер: Клинт Иствуд / Clint Eastwood
В ролях: Мэтт Дэймон, Сесиль де Франс, Тьерри Новик, Синди Майо Дэвис, Лиза Гриффитс, Джессика Гриффитс, Фергюсон Рейд, Дерек Сакакура, Джей Мор, Ричард Кайнд
Описание: Лента рассказывает три параллельные и в конечном итоге пересекающиеся истории о людях, познавших смерть — французская журналистка, пережившая цунами в 2004 году, и десятилетний мальчик потерявший в автокатастрофе своего брата-близнеца — встречают умеющего разговаривать с мёртвыми человека, способного дать им ответы и утешение — человека, смертельно уставшего слышать голоса мертвецов в своей голове.
Бонусы: Cмотрите на DVD

Качество: DVD9 R5
Формат: DVD-Video
Видео кодек: MPEG2
Аудио кодек: AC3
Видео: PAL 16:9 (720x576(0.576)) MPEG Video,25,000 кадр/сек, 5973 Кбит/сек
Аудио #1: Russian (Dolby AC3, 6 ch) 384 Кбит/сек, 48,0 КГц
Аудио #2: English (Dolby AC3, 6 ch) 384 Кбит/сек, 48,0 КГц
Аудио #3: English (Dolby AC3, 6 ch) 192 Кбит/сек, 48,0 КГц



Title: Мой диск
Size: 6.01 Gb ( 6 297 358 KBytes ) - DVD-9
Enabled regions: 1, 2, 3, 4, 5, 6, 7, 8

VTS_01 :
Play Length: 02:03:44+00:06:15+00:02:54+00:04:05
Video: PAL 16:9 (720x576) VBR, Auto Pan&Scan
Audio:
English (Dolby AC3, 6 ch)
Russian (Dolby AC3, 6 ch)
English (Dolby AC3, 2 ch)
Subtitles:
English
Russian
Ukrainian
English
Russian

VTS_02 :
Play Length: 00:00:10+00:00:12
Video: PAL 16:9 (720x576) VBR, Auto Pan&Scan
Audio:
Not specified (Dolby AC3, 6 ch)
Subtitles:
Not specified

Menu Video:
PAL 16:9 (720x576) VBR
Auto Letterboxed
Menu Subtitles:
Not specified
Menu Language Unit :
Root Menu
Общее
Полное имя : F:\Новинки 2011\Potustoronnee.2010..DVD9\VIDEO_TS\VTS_01_2.VOB
Формат : MPEG-PS
Размер файла : 1024 Мбайт
Продолжительность : 20 м.
Общий поток : 6878 Кбит/сек

Видео
Идентификатор : 224 (0xE0)
Формат : MPEG Video
Версия формата : Version 2
Профиль формата : Main@Main
Параметр BVOP формата : Да
Параметр матрицы формата : По умолчанию
Продолжительность : 20 м.
Вид битрейта : Переменный
Битрейт : 5973 Кбит/сек
Номинальный битрейт : 7500 Кбит/сек
Ширина : 720 пикс.
Высота : 576 пикс.
Соотношение сторон : 16:9
Частота кадров : 25,000 кадр/сек
Стандарт вещания : PAL
Цветовое пространство : YUV
Подвыборка цветности : 4:2:0
Битовая глубина : 8 бит
Тип развёртки : Чересстрочная
Порядок развёртки : Верхнее поле первое
Метод сжатия : С потерями
Бит/(Пиксели*Кадры) : 0.576
Размер потока : 889 Мбайт (87%)

Аудио #1
Идентификатор : 189 (0xBD)-128 (0x80)
Формат : AC-3
Формат/Информация : Audio Coding 3
Расширение режима : CM (complete main)
Режим смешивания : DVD-Video
Продолжительность : 20 м.
Вид битрейта : Постоянный
Битрейт : 384 Кбит/сек
Канал(ы) : 6 канала(ов)
Расположение каналов : Front: L C R, Side: L R, LFE
Частота : 48,0 КГц
Битовая глубина : 16 бит
Метод сжатия : С потерями
Задержка видео : -232 мс.
Размер потока : 57,2 Мбайт (6%)

Аудио #2
Идентификатор : 189 (0xBD)-129 (0x81)
Формат : AC-3
Формат/Информация : Audio Coding 3
Расширение режима : CM (complete main)
Режим смешивания : DVD-Video
Продолжительность : 20 м.
Вид битрейта : Постоянный
Битрейт : 384 Кбит/сек
Канал(ы) : 6 канала(ов)
Расположение каналов : Front: L C R, Side: L R, LFE
Частота : 48,0 КГц
Битовая глубина : 16 бит
Метод сжатия : С потерями
Задержка видео : -232 мс.
Размер потока : 57,2 Мбайт (6%)










pb.wtf



Скачать Потустороннее через торрент http://i4.imageban.ru/out/2011/05/25/c421e7ebe8a27d30704ff2b6e4a47c1b.png Скачать фильм Потустороннее через торрент бесплантно в хорошем качестве Описание: Лента рассказывает три параллельные и в конечном итоге пересекающиеся истории о людях, познавших смерть — французская ... 8 10 1
Info! Золотая раздача, скачанное не засчитывается.
Торрент: Зарегистрирован [2011-05-25 15:44] · скачан: 73 раз
Статус: √ проверено
Размер: 6.01 GB
Как cкачать? Как скачать Потустороннее через торрент | UTorrent

28-11-2019 20:33  

Отключить всю рекламу на сайте

29-05-2011 21:36 Потустороннее Скачать торрент  

ОГРОМНОЕ спасибо. Великолепный, мудрый фильм. Отличная раздача.

Я вообще очень люблю и ценю Иствуда. Как у любого активного человека, который делает что-то много и часто, у него бывают провалы - и актерские бывали, и режиссерские. Здесь - чистый случай хорошей, добротной работы. И я этому очень рад. Просто прекрасный фильм.

Ещё раз спасибо от всей души.

Всем смотреть.pb.wtf



    Дорогой пользователь! Огромная просьба, поблагодарите релизера, оцените раздачу и оставьте свои комментарий, если Вы скачали Потустороннее через торрент бесплатно! Внесите свою лепту в развитие PiratBit!
    Комментировать посты могут только пользователи прошедшие не сложную регистрацию
    Показать сообщения:    

    Потустороннее через торрент
    Скачать бесплатно Потустороннее
    Потустороннее скачать торрент
    Потустороннее смотреть онлайн
    Cкачать фильм Потустороннее бесплатно
    Потустороннее скачать торрент в хорошем качестве
    Потустороннее смотреть онлайн бесплатно в хорошем качестве


    Вы не можете начинать темы
    Вы не можете отвечать на сообщения
    Вы не можете редактировать свои сообщения
    Вы не можете удалять свои сообщения
    Вы не можете голосовать в опросах
    Вы не можете прикреплять файлы к сообщениям
    Вы можете скачивать файлы