1 сезон

3 сезон

iTunes

1

iTunes

MVO

iTunes

13

1 сезон

RePack

30

Deluxe

pack

Лицензия

ВАЖНО

ИГРА 18+

pack

RePack

MK11

RePack

jed

RePack

fifa19

RePack

RDR2

RePack

NEED FOR SPEED™ PAYBACK

4 сезон

9 сезон

Бесстыжие 9 сезон

Все сериалы

все сериалы на PB.wtf

RePack

FAR CRY 5

Anonymous, доброе утро, мы катастрофически не успеваем собрать деньги на оплату серверов, помогите нам пожалуйста 5,10,15р., для нас важна любая помощь . В качестве благодарности мы отключим Вам всю рекламу на сайте (укажите свой ник в строку Ваше имя)!

×
  
Magnet ссылка

Месть / Haevnen (Сюзанна Бир / Susanne Bier) [2010, Дания, Швеция, триллер, драма, DVD9] R5 «Кармен Видео» pb.wtf

Месть через торрент pb.wtf

Размер: 7.53 GB | Добавлен: 10 лет назад | Торрент скачан:20 раз
Скачать  

26-05-2011 08:26 Месть Скачать торрент  


Месть / Haevnen
Страна: Дания, Швеция
Студия: Danmarks Radio (DR), Det Danske Filminstitut, Film Fyn, Film i Väst, MEDIA, Memfis Film, Nordisk Film- & TV-Fond, Sveriges Television (SVT), Swedish Film Institute, Trollhättan Film AB, Zentropa International, Zentropa Productions
Жанр: триллер, драма
Год выпуска: 2010
Мировая премьера: 26 августа 2010
Российская премьера: 28 апреля 2011, «Каравелла DDC»
Дата выхода DVD: 25 мая 2011, «Кармен Видео»
Дата выхода Blu-Ray: 25 мая 2011, «Кармен Видео»
Продолжительность: 01:53:04
Перевод: Профессиональный (многоголосый закадровый) [Лицензия]
Cубтитры: русские
Оригинальная аудиодорожка: датский
Режиссер: Сюзанна Биер / Susanne Bier
В ролях: Микаэль Персбрандт, Трин Дюрхольм, Ульрих Томсен, Вильям Йонк Нильсен, Маркус Рюгард, Уил Джонсон, Эдди Кимани, Эмили Мглая, Гэбриэл Мули, Джун Ваверу, Мэри Хуну Моат
Описание: Сорокалетний Антон возвращается в родную Данию, много лет проработав в африканском лагере для беженцев. Долгие годы среди чужого горя научили его никогда не отвечать насилием на насилие. Даже когда местный автомеханик беспричинно избивает Антона, тот сдерживает гнев. Кажется, что конфликт исчерпан, но тут его сын Элиас вместе со своим другом Кристианом решают отомстить за отца.
Бонусы: Интервью с Сюзанной Биер, смотрите на DVD

Качество: DVD9 R5
Формат: DVD-Video
Видео кодек: MPEG2
Аудио кодек: AC3
Видео: PAL 16:9 (720x576(0.563)) MPEG Video,25,000 кадр/сек, 5837 Кбит/сек
Аудио #1: Russian (Dolby AC3, 6 ch) 384 Кбит/сек, 48,0 КГц
Аудио #2: Danish (Dolby AC3, 6 ch) 384 Кбит/сек, 48,0 КГц
Аудио #3: Russian (Dolby AC3, 2 ch) 192 Кбит/сек, 48,0 КГц



Title: Мой диск
Size: 7.53 Gb ( 7.893.760 KBytes ) - DVD-9
Enabled regions: 1, 2, 3, 4, 5, 6, 7, 8

VTS_01 :
Play Length: 01:53:04
Video: PAL 16:9 (720x576) VBR, Auto Pan&Scan
Audio:
Russian (Dolby AC3, 6 ch)
Dansk (Dolby AC3, 6 ch)
Russian (Dolby AC3, 2 ch)
Subtitles:
Russian

VTS_02 :
Play Length: 00:00:05+00:00:13
Video: PAL 16:9 (720x576) VBR, Auto Pan&Scan
Audio:
Russian (Dolby AC3, 6 ch)

VTS_03 :
Play Length: 00:04:17
Video: PAL 16:9 (720x576) VBR, Auto Pan&Scan
Audio:
Russian (Dolby AC3, 2 ch)

VTS_04 :
Play Length: 00:15:49+00:02:07+00:02:29+00:01:36+00:01:00+00:01:58+00:01:53+00:02:19
Video: PAL 16:9 (720x576) VBR, Auto Pan&Scan
Audio:
Russian (Dolby AC3, 2 ch)

Menu Video:
PAL 4:3 (720x576) VBR
Auto Pan&Scan, Auto Letterboxed
Menu Russian Language Unit :
Root Menu
Angle menu
Общее
Полное имя : F:\Новинки 2011\Mest.2010.DVD9\VIDEO_TS\VTS_01_2.VOB
Формат : MPEG-PS
Размер файла : 1024 Мбайт
Продолжительность : 20 м.
Общий поток : 6935 Кбит/сек

Видео
Идентификатор : 224 (0xE0)
Формат : MPEG Video
Версия формата : Version 2
Профиль формата : Main@Main
Параметр BVOP формата : Да
Параметр матрицы формата : По умолчанию
Продолжительность : 20 м.
Вид битрейта : Переменный
Битрейт : 5837 Кбит/сек
Номинальный битрейт : 8500 Кбит/сек
Ширина : 720 пикс.
Высота : 576 пикс.
Соотношение сторон : 16:9
Частота кадров : 25,000 кадр/сек
Стандарт вещания : PAL
Цветовое пространство : YUV
Подвыборка цветности : 4:2:0
Битовая глубина : 8 бит
Тип развёртки : Чересстрочная
Порядок развёртки : Верхнее поле первое
Метод сжатия : С потерями
Бит/(Пиксели*Кадры) : 0.563
Размер потока : 862 Мбайт (84%)

Аудио #1
Идентификатор : 189 (0xBD)-128 (0x80)
Формат : AC-3
Формат/Информация : Audio Coding 3
Расширение режима : CM (complete main)
Режим смешивания : DVD-Video
Продолжительность : 20 м.
Вид битрейта : Постоянный
Битрейт : 384 Кбит/сек
Канал(ы) : 6 канала(ов)
Расположение каналов : Front: L C R, Side: L R, LFE
Частота : 48,0 КГц
Битовая глубина : 16 бит
Метод сжатия : С потерями
Задержка видео : -368 мс.
Размер потока : 56,7 Мбайт (6%)

Аудио #2
Идентификатор : 189 (0xBD)-129 (0x81)
Формат : AC-3
Формат/Информация : Audio Coding 3
Расширение режима : CM (complete main)
Режим смешивания : DVD-Video
Продолжительность : 20 м.
Вид битрейта : Постоянный
Битрейт : 384 Кбит/сек
Канал(ы) : 6 канала(ов)
Расположение каналов : Front: L C R, Side: L R, LFE
Частота : 48,0 КГц
Битовая глубина : 16 бит
Метод сжатия : С потерями
Задержка видео : -368 мс.
Размер потока : 56,7 Мбайт (6%)

Аудио #3
Идентификатор : 189 (0xBD)-130 (0x82)
Формат : AC-3
Формат/Информация : Audio Coding 3
Расширение режима : CM (complete main)
Режим смешивания : DVD-Video
Продолжительность : 20 м.
Вид битрейта : Постоянный
Битрейт : 192 Кбит/сек
Канал(ы) : 2 канала(ов)
Расположение каналов : Front: L R
Частота : 48,0 КГц
Битовая глубина : 16 бит
Метод сжатия : С потерями
Задержка видео : -304 мс.
Размер потока : 28,4 Мбайт (3%)










pb.wtf



Скачать Месть через торрент http://i4.imageban.ru/out/2011/05/26/ae7d8b467cbed6d46a5dd9dbfcd17e1b.jpg Скачать фильм Месть через торрент бесплантно в хорошем качестве Описание: Сорокалетний Антон возвращается в родную Данию, много лет проработав в африканском лагере для беженцев. Долгие годы среди чужого ... 5 10 2
Info! Золотая раздача, скачанное не засчитывается.
Торрент: Зарегистрирован [2011-05-26 08:26] · скачан: 20 раз
Статус: √ проверено
Размер: 7.53 GB
Как cкачать? Как скачать Месть через торрент | UTorrent

28-11-2019 20:33  

Отключить всю рекламу на сайте


    Дорогой пользователь! Огромная просьба, поблагодарите релизера, оцените раздачу и оставьте свои комментарий, если Вы скачали Месть через торрент бесплатно! Внесите свою лепту в развитие PiratBit!
    Комментировать посты могут только пользователи прошедшие не сложную регистрацию
    Показать сообщения:    

    Месть через торрент
    Скачать бесплатно Месть
    Месть скачать торрент
    Месть смотреть онлайн
    Cкачать фильм Месть бесплатно
    Месть скачать торрент в хорошем качестве
    Месть смотреть онлайн бесплатно в хорошем качестве


    Вы не можете начинать темы
    Вы не можете отвечать на сообщения
    Вы не можете редактировать свои сообщения
    Вы не можете удалять свои сообщения
    Вы не можете голосовать в опросах
    Вы не можете прикреплять файлы к сообщениям
    Вы можете скачивать файлы