MEGA SALE -50% FORZA HORIZON 4 ULTIMATE+ВСЕ DLC+ОНЛАЙН всего за 599р. 299 руб. (супер цена). Внимание количество ограничено!!!

iTunes

1+1

iTunes

мы

iTunes

1

iTunes

Чернобыль

iTunes

Ральф против интернета

Лицензия

ПШазам

Лицензия

Игра престолов

Лицензия

30
pack

ВАЖНО

!!Акция!!

Alien_RageХит недели

RePack

Resident Evil 21

ИГРА 18+

pack

RePack

Metro:Exodus

!!Акция!!

Alien_Rage

RePack

fifa19

RePack

Assassins Creed: Odyssey

RePack

NEED FOR SPEED™ PAYBACK

3 сезон

9 сезон

Бесстыжие 9 сезон

Все сериалы

все сериалы на PB.wtf

RePack

FAR CRY 5
Ребята, катастрофически не хватает 7730р. для оплаты серверов за АВГУСТ (всвязи с блокировками трафик упал в 3 раза), 1-2р., выручайте.
  

Cезон побед / The Winning Season (James C. Strouse) [2009 г., комедия, спорт, DVDRip] pb.wtf

Cезон побед через торрент pb.wtf

Размер: 1.63 GB | Добавлен: 8 лет 3 мес. назад | Торрент скачан:6 раз
Скачать  

26-05-2011 19:10 Cезон побед Скачать торрент  

Cезон побед / The Winning Season

Год выпуска: 2009
Страна: США
Жанр: комедия, спорт
Продолжительность: 01:42:57
Перевод: Любительский (одноголосый закадровый) [zamez]

Режиссер: James C. Strouse

В ролях: Сэм Рокуэлл, Эмма Робертс, Роб Кордри, Марго Мартиндейл, Джессика Хехт, Шена Даудесвелл, Шарика Эппс, Меган Уинтр, Эмили Риос, Мелани Хинкль

Описание: В фильме рассказывается история неудачника, который тренирует женскую баскетбольную команду.

Семпл

Качество: DVDRip
Формат: AVI
Видео кодек: XviD
Аудио кодек: MP3 , AC3
Видео: 720x384 (16:9), 23.976 fps, Xvid ~1616 Kbps avg, 0.244 bit/pixel
Аудио #1: [rus] 48.0 KHz, MPEG Audio Layer 3, 2/0 (L,R) ch, ~192.00 kbps avg
Аудио #2: [eng] 48 kHz, AC3 Dolby Digital, 3/2 (L,C,R,l,r) + LFE ch, ~448.00 kbps avg
Complete name Cezon.pobed.2009.L1.DVDRip.avi
Format : AVI
Format/Info : Audio Video Interleave
Format profile : OpenDML
File size : 1.63 GiB
Duration : 1h 42mn
Overall bit rate : 2 262 Kbps
Movie name : The Winning Season - uiuc
Writing application : AVI-Mux GUI 1.17.7, Aug 8 2006 20:59:17

Video
ID : 0
Format : MPEG-4 Visual
Format profile : Advanced Simple@L5
Format settings, BVOP : Yes
Format settings, QPel : No
Format settings, GMC : No warppoints
Format settings, Matrix : Default (H.263)
Muxing mode : Packed bitstream
Codec ID : XVID
Codec ID/Hint : XviD
Duration : 1h 42mn
Bit rate : 1 616 Kbps
Width : 720 pixels
Height : 384 pixels
Display aspect ratio : 1.875
Frame rate : 23.976 fps
Color space : YUV
Chroma subsampling : 4:2:0
Bit depth : 8 bits
Scan type : Progressive
Bits/(Pixel*Frame) : 0.244
Stream size : 1.16 GiB (71%)
Writing library : XviD 1.1.0 (UTC 2005-11-22)

Audio #1
ID : 1
Format : MPEG Audio
Format version : Version 1
Format profile : Layer 3
Codec ID : 55
Codec ID/Hint : MP3
Duration : 1h 42mn
Bit rate mode : Constant
Bit rate : 192 Kbps
Channel(s) : 2 channels
Sampling rate : 48.0 KHz
Stream size : 141 MiB (8%)
Alignment : Aligned on interleaves
Interleave, duration : 402 ms (9.63 video frames)
Interleave, preload duration : 216 ms
Title : (MP3 , 2 ch @ 192 Kbps) - russian

Audio #2
ID : 2
Format : AC-3
Format/Info : Audio Coding 3
Mode extension : CM (complete main)
Codec ID : 2000
Duration : 1h 42mn
Bit rate mode : Constant
Bit rate : 448 Kbps
Channel(s) : 6 channels
Channel positions : Front: L C R, Side: L R, LFE
Sampling rate : 48.0 KHz
Bit depth : 16 bits
Stream size : 330 MiB (20%)
Alignment : Aligned on interleaves
Interleave, duration : 64 ms (1.53 video frames)
Interleave, preload duration : 192 ms
Title : (AC3, 6 ch @ 448 Kbps) - english

Text
ID : 3
Stream size : 107 KiB (0%)



pb.wtf



Скачать Cезон побед через торрент http://i22.fastpic.ru/big/2011/0526/1f/67ee23dc8f5e09f0de1f70279705a11f.jpg Скачать фильм Cезон побед через торрент бесплантно в хорошем качестве Описание: В фильме рассказывается история неудачника, который тренирует женскую баскетбольную команду. ... 5 10 1
Info! Золотая раздача, скачанное не засчитывается.
Торрент: Зарегистрирован [2011-05-26 19:10] · скачан: 6 раз
Статус: √ проверено
Размер: 1.63 GB
Как cкачать? Как скачать Cезон побед через торрент | qTorrent

% Раздел Тема Автор DL S | L
Фильмы 2009 [ 697 MB ] Cезон побед / Winning Season The [2009 DVDRip] coc900 Скачать
1 | 0


>> Регистрируемся здесь <<






Отзывы и комментарии о схеме читаем и пишем здесь: ---> Отзывы и комментарии о схеме

Новые благодарочки в телеграм довольных пользователей:
скриншот   скриншот   скриншот   скриншот   скриншот
    Дорогой пользователь! Огромная просьба, поблагодарите релизера, оцените раздачу и оставьте свои комментарий, если Вы скачали Cезон побед через торрент бесплатно! Внесите свою лепту в развитие PiratBit!
    Комментировать посты могут только пользователи прошедшие не сложную регистрацию
    Показать сообщения:    

    Cезон побед через торрент
    Скачать бесплатно Cезон побед
    Cезон побед скачать торрент
    Cезон побед смотреть онлайн
    Cкачать фильм Cезон побед бесплатно
    Cезон побед скачать торрент в хорошем качестве
    Cезон побед смотреть онлайн бесплатно в хорошем качестве


    Вы не можете начинать темы
    Вы не можете отвечать на сообщения
    Вы не можете редактировать свои сообщения
    Вы не можете удалять свои сообщения
    Вы не можете голосовать в опросах
    Вы не можете прикреплять файлы к сообщениям
    Вы можете скачивать файлы