Ссылка на приватное зеркало всего за 1$. Внимание количество ограничено!!!

iTunes

1+1

iTunes

мы

WEB-DL

1

iTunes

Чернобыль

iTunes

Ральф против интернета

Лицензия

ПШазам

Лицензия

Оно 2

Лицензия

30
pack

Вам бонус

ВАЖНО

!!Акция!!

Alien_RageХит недели

RePack

Resident Evil 21

ИГРА 18+

pack

RePack

jed

!!Акция!!

Alien_Rage

RePack

fifa19

RePack

Assassins Creed: Odyssey

RePack

NEED FOR SPEED™ PAYBACK

3 сезон

9 сезон

Бесстыжие 9 сезон

Все сериалы

все сериалы на PB.wtf

RePack

FAR CRY 5
Ребята, катастрофически не хватает 1900р. для оплаты серверов за Октябрь (всвязи с блокировками трафик упал в 3 раза), 1-2р., выручайте.
  

Революция, я люблю тебя! / Revolucion (Мариана Ченильо, Патрисия Ригген, Фернандо Эймбке / Mariana Chenillo, Patricia Rygge, Fernando Eimbcke) [2010, Мексика, военный, история, DVD5] pb.wtf

Революция, я люблю тебя! через торрент pb.wtf

Размер: 4.36 GB | Добавлен: 8 лет 6 мес. назад | Торрент скачан:19 раз
Скачать  

31-05-2011 20:13 Революция, я люблю тебя! Скачать торрент  


Революция, я люблю тебя! / Revolucion
Страна: Мексика
Студия: Canana Films, Instituto Mexicano de Cinematografía (IMCINE), Mantarraya Producciones
Жанр: военный, история
Год выпуска: 2010
Мировая премьера: 14 февраля 2010
Российская премьера: 14 апреля 2011, «Экспонента»
Дата выхода DVD: 19 мая 2011
Продолжительность: 01:46:37
Перевод: Профессиональный (многоголосый закадровый) [Лицензия]
Cубтитры: русские
Оригинальная аудиодорожка: испанский
Режиссер: Мариана Ченильо, Патрисия Ригген, Фернандо Эймбке / Mariana Chenillo, Patricia Rygge, Fernando Eimbcke
В ролях: Адриана Барраза, Моника Беджарано, Эри Брикман, Кармен Коррал, Роберт М. Мартинез
Описание: Признание в любви к Мексике 10-ти выдающихся мексиканских режиссеров. Каждый из них снял 10-минутную новеллу в своем уникальном стиле. Каждый фильм снят в духе мексиканской революции. «В духе», — потому что эти короткометражки не о самой революции, но они несут настроение Мексиканской революции 1910 года. Фильм «Революция, я люблю тебя» являет собой хороший пример народного кино, продолжая традиции фильмов «Париж, я люблю тебя», «Нью-Йорк, я люблю тебя», «Москва, я люблю тебя».
Бонусы: нет

Релиз группы:
Качество: DVD5 R5
Формат: DVD-Video
Видео кодек: MPEG2
Аудио кодек: AC3
Видео: PAL 16:9 (720x576(0.446)) MPEG Video,25,000 кадр/сек, 4625 Кбит/сек
Аудио #1: Russian (Dolby AC3, 2 ch) 192 Кбит/сек, 48,0 КГц
Аудио #2: Espanol (Dolby AC3, 2 ch) 192 Кбит/сек, 48,0 КГц



Title: Мой диск
Size: 4.36 Gb ( 4 576 186 KBytes ) - DVD-5
Enabled regions: 1, 2, 3, 4, 5, 6, 7, 8

VTS_01 :
Play Length: 00:00:08
Video: PAL 16:9 (720x576) VBR, Auto Pan&Scan
Audio:
English (Dolby AC3, 6 ch)

VTS_02 :
Play Length: 01:46:37
Video: PAL 16:9 (720x576) VBR, Auto Pan&Scan
Audio:
Russian (Dolby AC3, 2 ch)
Espanol (Dolby AC3, 2 ch)
Subtitles:
Russian
Общее
Полное имя : F:\Новинки 2011\Revoljucija.ja.ljublju.tebja.2010.DVD5\VIDEO_TS\VTS_02_1.VOB
Формат : MPEG-PS
Размер файла : 1024 Мбайт
Продолжительность : 28 м.
Общий поток : 5110 Кбит/сек

Видео
Идентификатор : 224 (0xE0)
Формат : MPEG Video
Версия формата : Version 2
Профиль формата : Main@Main
Параметр BVOP формата : Да
Параметр матрицы формата : По умолчанию
Продолжительность : 28 м.
Вид битрейта : Переменный
Битрейт : 4625 Кбит/сек
Номинальный битрейт : 9000 Кбит/сек
Ширина : 720 пикс.
Высота : 576 пикс.
Соотношение сторон : 16:9
Частота кадров : 25,000 кадр/сек
Стандарт вещания : PAL
Цветовое пространство : YUV
Подвыборка цветности : 4:2:0
Битовая глубина : 8 бит
Тип развёртки : Чересстрочная
Порядок развёртки : Верхнее поле первое
Метод сжатия : С потерями
Бит/(Пиксели*Кадры) : 0.446
Размер потока : 927 Мбайт (90%)

Аудио #1
Идентификатор : 189 (0xBD)-128 (0x80)
Формат : AC-3
Формат/Информация : Audio Coding 3
Расширение режима : CM (complete main)
Режим смешивания : DVD-Video
Продолжительность : 28 м.
Вид битрейта : Постоянный
Битрейт : 192 Кбит/сек
Канал(ы) : 2 канала(ов)
Расположение каналов : Front: L R
Частота : 48,0 КГц
Битовая глубина : 16 бит
Метод сжатия : С потерями
Размер потока : 38,5 Мбайт (4%)

Аудио #2
Идентификатор : 189 (0xBD)-129 (0x81)
Формат : AC-3
Формат/Информация : Audio Coding 3
Расширение режима : CM (complete main)
Режим смешивания : DVD-Video
Продолжительность : 28 м.
Вид битрейта : Постоянный
Битрейт : 192 Кбит/сек
Канал(ы) : 2 канала(ов)
Расположение каналов : Front: L R
Частота : 48,0 КГц
Битовая глубина : 16 бит
Метод сжатия : С потерями
Размер потока : 38,5 Мбайт (4%)

Текст
Идентификатор : 189 (0xBD)-32 (0x20)
Формат : RLE
Формат/Информация : Run-length encoding
Режим смешивания : DVD-Video










pb.wtf



Скачать Революция, я люблю тебя! через торрент http://i1.imageban.ru/out/2011/05/31/783de020a047bf44380ca911cdfbf60b.jpg Скачать фильм Революция, я люблю тебя! через торрент бесплантно в хорошем качестве Описание: Признание в любви к Мексике 10-ти выдающихся мексиканских режиссеров. Каждый из них снял 10-минутную новеллу в своем уникальном ... 5 10 3
Info! Золотая раздача, скачанное не засчитывается.
Торрент: Зарегистрирован [2011-05-31 20:13] · скачан: 19 раз
Статус: √ проверено
Размер: 4.36 GB
Как cкачать? Как скачать Революция, я люблю тебя! через торрент | qTorrent

28-11-2019 20:33  

Отключить всю рекламу на сайте

    Дорогой пользователь! Огромная просьба, поблагодарите релизера, оцените раздачу и оставьте свои комментарий, если Вы скачали Революция, я люблю тебя! через торрент бесплатно! Внесите свою лепту в развитие PiratBit!
    Комментировать посты могут только пользователи прошедшие не сложную регистрацию
    Показать сообщения:    

    Революция, я люблю тебя! через торрент
    Скачать бесплатно Революция, я люблю тебя!
    Революция, я люблю тебя! скачать торрент
    Революция, я люблю тебя! смотреть онлайн
    Cкачать фильм Революция, я люблю тебя! бесплатно
    Революция, я люблю тебя! скачать торрент в хорошем качестве
    Революция, я люблю тебя! смотреть онлайн бесплатно в хорошем качестве


    Вы не можете начинать темы
    Вы не можете отвечать на сообщения
    Вы не можете редактировать свои сообщения
    Вы не можете удалять свои сообщения
    Вы не можете голосовать в опросах
    Вы не можете прикреплять файлы к сообщениям
    Вы можете скачивать файлы