1 сезон

3 сезон

iTunes

1

Line

MVO

iTunes

13

1 сезон

RePack

30

Deluxe

pack

Лицензия

ВАЖНО

ИГРА 18+

pack

RePack

MK11

RePack

jed

RePack

fifa19

RePack

RDR2

RePack

NEED FOR SPEED™ PAYBACK

4 сезон

9 сезон

Бесстыжие 9 сезон

Все сериалы

все сериалы на PB.wtf

RePack

FAR CRY 5

Anonymous, доброе утро, мы катастрофически не успеваем собрать деньги на оплату серверов, помогите нам пожалуйста 5,10,15р., для нас важна любая помощь . В качестве благодарности мы отключим Вам всю рекламу на сайте (укажите свой ник в строку Ваше имя)!

×
  
Magnet ссылка

Пастырь / Priest (Скотт Чарльз Стюарт / Scott Charles Stewart) [2011, США, ужасы, фантастика, боевик, триллер, DVD5] R5 «Columbia/Sonpb.wtf

Пастырь через торрент pb.wtf

Размер: 4.01 GB | Добавлен: 10 лет назад | Торрент скачан:610 раз
Скачать  

02-06-2011 15:54 Пастырь Скачать торрент  


Пастырь / Priest
«И один в поле воин»
Страна: США
Студия: Buckaroo Entertainment, Michael De Luca Productions, Screen Gems, Stars Road Entertainment, TOKYOPOP
Жанр: ужасы, фантастика, боевик, триллер
Год выпуска: 2011
Мировая премьера: 5 мая 2011
Российская премьера: 7 мая 2011, «WDSSPR» 3D
Дата выхода DVD: 9 июня 2011, «Columbia/Sony»
Продолжительность: 01:23:46
Перевод: Профессиональный (дублированный) [Лицензия]
Cубтитры: нет
Режиссер: Скотт Чарльз Стюарт / Scott Charles Stewart
В ролях: Пол Беттани, Карл Урбан, Кэм Жиганде, Мэгги Кью, Лили Коллинз, Брэд Дуриф, Стивен Мойер, Кристофер Пламмер, Алан Дэйл, Медкен Эмик
Описание: Далекое будущее. Миром правят религия и церковь. Священник, нарушая все церковные запреты, пытается выследить банду вампиров, похитивших его племянницу. В поисках ему помогают шериф и монахиня.
Бонусы: нет

Качество: DVD5 R5
Формат: DVD-Video
Видео кодек: MPEG2
Аудио кодек: AC3
Видео: PAL 16:9 (720x576(0.528)) MPEG Video,25,000 кадр/сек, 5479 Кбит/сек
Аудио #1: Russian (Dolby AC3, 6 ch) 448 Кбит/сек, 48,0 КГц
Аудио #2: Ukrainian (Dolby AC3, 6 ch) 448 Кбит/сек, 48,0 КГц



Title: Мой диск
Size: 4.01 Gb ( 4 209 318 KBytes ) - DVD-5
Enabled regions: 1, 2, 3, 4, 5, 6, 7, 8

VTS_01 :
Play Length: 01:23:46
Video: PAL 16:9 (720x576) VBR, Auto Letterboxed
Audio:
Russian (Dolby AC3, 6 ch)
Ukrainian (Dolby AC3, 6 ch)
Subtitles:
Russian

Menu Video:
PAL 16:9 (720x576) VBR
Auto Letterboxed
Menu Audio:
Not specified (Dolby AC3, 6 ch)
Menu Subtitles:
Not specified
Menu Russian Language Unit :
Root Menu
Audio Menu
Chapter (PTT) Menu
Общее
Полное имя : F:\Новинки 2011\Pastyr.2011.DVD5\VTS_01_1.VOB
Формат : MPEG-PS
Размер файла : 1024 Мбайт
Продолжительность : 22 м.
Общий поток : 6504 Кбит/сек

Видео
Идентификатор : 224 (0xE0)
Формат : MPEG Video
Версия формата : Version 2
Профиль формата : Main@Main
Параметр BVOP формата : Да
Параметр матрицы формата : По умолчанию
Продолжительность : 22 м.
Вид битрейта : Переменный
Битрейт : 5479 Кбит/сек
Номинальный битрейт : 9000 Кбит/сек
Ширина : 720 пикс.
Высота : 576 пикс.
Соотношение сторон : 16:9
Частота кадров : 25,000 кадр/сек
Стандарт вещания : PAL
Цветовое пространство : YUV
Подвыборка цветности : 4:2:0
Битовая глубина : 8 бит
Тип развёртки : Прогрессивная
Метод сжатия : С потерями
Бит/(Пиксели*Кадры) : 0.528
Размер потока : 862 Мбайт (84%)

Аудио #1
Идентификатор : 189 (0xBD)-128 (0x80)
Формат : AC-3
Формат/Информация : Audio Coding 3
Расширение режима : CM (complete main)
Режим смешивания : DVD-Video
Продолжительность : 22 м.
Вид битрейта : Постоянный
Битрейт : 448 Кбит/сек
Канал(ы) : 6 канала(ов)
Расположение каналов : Front: L C R, Side: L R, LFE
Частота : 48,0 КГц
Битовая глубина : 16 бит
Метод сжатия : С потерями
Размер потока : 70,5 Мбайт (7%)

Аудио #2
Идентификатор : 189 (0xBD)-129 (0x81)
Формат : AC-3
Формат/Информация : Audio Coding 3
Расширение режима : CM (complete main)
Режим смешивания : DVD-Video
Продолжительность : 22 м.
Вид битрейта : Постоянный
Битрейт : 448 Кбит/сек
Канал(ы) : 6 канала(ов)
Расположение каналов : Front: L C R, Side: L R, LFE
Частота : 48,0 КГц
Битовая глубина : 16 бит
Метод сжатия : С потерями
Размер потока : 70,5 Мбайт (7%)










pb.wtf



Скачать Пастырь через торрент http://i3.imageban.ru/out/2011/06/02/89b31c3a4482566e1a34b8add7e2464a.jpg Скачать фильм Пастырь через торрент бесплантно в хорошем качестве Описание: Далекое будущее. Миром правят религия и церковь. Священник, нарушая все церковные запреты, пытается выследить банду вампиров, ... 10 10 1
Info! Золотая раздача, скачанное не засчитывается.
Торрент: Зарегистрирован [2011-06-02 15:55] · скачан: 610 раз
Статус: √ проверено
Размер: 4.01 GB
Как cкачать? Как скачать Пастырь через торрент | UTorrent

28-11-2019 20:33  

Отключить всю рекламу на сайте

02-06-2011 16:26 Пастырь Скачать торрент  

ну а 3D где?(pb.wtf



02-06-2011 16:30 Пастырь Скачать торрент  

jora poker писал(а):

ну а 3D где?(

В кинотеатре pb.wtf



02-06-2011 16:36 Пастырь Скачать торрент  

valter2009
там где я живу нет ещё 3D кинотеатра....pb.wtf



02-06-2011 17:01 Пастырь Скачать торрент  

спасибоpb.wtf



02-06-2011 17:29 Пастырь Скачать торрент  

спасибо,заценим.pb.wtf



02-06-2011 19:03 Пастырь Скачать торрент  

Фильм-фигня,ни одной нормальной схватки даж нет!И заканчивается бредово,я бы этому фильму 0 поставил! :doubledown:pb.wtf



02-06-2011 21:13 Пастырь Скачать торрент  

полностью саледарен с выше сказаным моим тёской, хорошо хоть в кино не пошел на него(( pb.wtf



03-06-2011 05:32 Пастырь Скачать торрент  

Victor111 писал(а):

Фильм-фигня,ни одной нормальной схватки даж нет!И заканчивается бредово,я бы этому фильму 0 поставил! :doubledown:

на кинопоиске поставь:))))

фильм на любителя - кто то говорит норм кто то что бред, посмотрю отпишусьpb.wtf



    Дорогой пользователь! Огромная просьба, поблагодарите релизера, оцените раздачу и оставьте свои комментарий, если Вы скачали Пастырь через торрент бесплатно! Внесите свою лепту в развитие PiratBit!
    Комментировать посты могут только пользователи прошедшие не сложную регистрацию
    Показать сообщения:    

    Пастырь через торрент
    Скачать бесплатно Пастырь
    Пастырь скачать торрент
    Пастырь смотреть онлайн
    Cкачать фильм Пастырь бесплатно
    Пастырь скачать торрент в хорошем качестве
    Пастырь смотреть онлайн бесплатно в хорошем качестве


    Вы не можете начинать темы
    Вы не можете отвечать на сообщения
    Вы не можете редактировать свои сообщения
    Вы не можете удалять свои сообщения
    Вы не можете голосовать в опросах
    Вы не можете прикреплять файлы к сообщениям
    Вы можете скачивать файлы