Ссылка на приватное зеркало нашего сайта всего за 1$. Внимание количество ограничено!!!

2 сезон

iTunes

1 сезон

1

iTunes

iTunes

iTunes

1 сезон

RePack

30

ИГРА 18+

pack

ВАЖНО

!!Акция!!

Alien_RageХит недели

RePack

MK11
pack

Забери бонус

RePack

jed

!!Акция!!

Alien_Rage

RePack

fifa19

RePack

Assassins Creed: Odyssey

RePack

NEED FOR SPEED™ PAYBACK

4 сезон

9 сезон

Бесстыжие 9 сезон

Все сериалы

все сериалы на PB.wtf

RePack

FAR CRY 5
  

Три дня на побег / The Next Three Days (Пол Хаггис) [2010 г., триллер, драма, мелодрама, криминал, BDRip 1080р] pb.wtf

Три дня на побег через торрент pb.wtf

Размер: 4.37 GB | Добавлен: 9 лет 4 мес. назад | Торрент скачан:605 раз
Скачать  

03-06-2011 12:58 Три дня на побег Скачать торрент  

Три дня на побег
The Next Three Days




Год выпуска: 2010
Страна: США
Жанр: триллер, драма, мелодрама, криминал
Продолжительность: 02:13:05
Перевод: Профессиональный (полное дублирование)

Режиссер: Пол Хаггис

В ролях: Рассел Кроу, Элизабет Бэнкс, Майкл Бьюи, Моран Атиас, Реми Нозик, Тоби Грин, Тайлер Грин, Джейсон Бех, Аиша Хиндс, Тай Симпкинс

Описание: Жизнь Джона казалась идеальной, пока его красавицу жену не арестовали по подозрению в убийстве. Пока Лара сидит в тюрьме, Джон один воспитывает сына и пытается всеми способами доказать ее невиновность.

Но, когда законные способы освободить любимую исчерпаны, единственное, что ему остается — разработать изощренный план побега. Джон готов рискнуть всем ради нее… Но что если она действительно виновна?

Семпл

Качество: BDRip 1080р
Формат: MKV
Видео кодек: AVC
Аудио кодек: AC3
Видео: AVC, 4 318 Kbps, 1920 x 816 pixels, 23.976 fps, Bits/(Pixel*Frame) : 0.115
Аудио: AC-3, 384 Kbps, 6 channels, 48.0 KHz
Субтитры:English
Complete name The.Next.Three.Days.2010.BDRip.1080p.Rus.mkv
Format : Matroska
File size : 4.37 GiB
Duration : 2h 13mn
Overall bit rate : 4 703 Kbps
Encoded date : UTC 2011-05-11 23:06:27
Writing application : mkvmerge v4.0.0 ('The Stars were mine') сборка от Jun 6 2010 16:18:42
Writing library : libebml v1.0.0 + libmatroska v1.0.0

Video
ID : 1
Format : AVC
Format/Info : Advanced Video Codec
Format profile : High@L4.1
Format settings, CABAC : Yes
Format settings, ReFrames : 5 frames
Codec ID : V_MPEG4/ISO/AVC
Duration : 2h 13mn
Bit rate : 4 318 Kbps
Width : 1 920 pixels
Height : 816 pixels
Display aspect ratio : 2.35:1
Frame rate : 23.976 fps
Color space : YUV
Chroma subsampling : 4:2:0
Bit depth : 8 bits
Scan type : Progressive
Bits/(Pixel*Frame) : 0.115
Stream size : 3.93 GiB (90%)
Writing library : x264 core 115 r1947 b5a8ad7
Encoding settings : cabac=1 / ref=5 / deblock=1:0:0 / analyse=0x3:0x133 / me=umh / subme=10 / psy=1 / psy_rd=1.00:0.10 / mixed_ref=1 / me_range=24 / chroma_me=1 / trellis=2 / 8x8dct=1 / cqm=0 / deadzone=21,11 / fast_pskip=0 / chroma_qp_offset=-3 / threads=12 / sliced_threads=0 / nr=0 / decimate=1 / interlaced=0 / bluray_compat=0 / constrained_intra=0 / bframes=5 / b_pyramid=2 / b_adapt=2 / b_bias=0 / direct=3 / weightb=1 / open_gop=0 / weightp=2 / keyint=250 / keyint_min=23 / scenecut=40 / intra_refresh=0 / rc_lookahead=60 / rc=2pass / mbtree=1 / bitrate=4318 / ratetol=1.0 / qcomp=0.60 / qpmin=0 / qpmax=69 / qpstep=4 / cplxblur=20.0 / qblur=0.5 / ip_ratio=1.40 / aq=1:1.00
Language : English

Audio
ID : 2
Format : AC-3
Format/Info : Audio Coding 3
Mode extension : CM (complete main)
Codec ID : A_AC3
Duration : 2h 13mn
Bit rate mode : Constant
Bit rate : 384 Kbps
Channel(s) : 6 channels
Channel positions : Front: L C R, Side: L R, LFE
Sampling rate : 48.0 KHz
Bit depth : 16 bits
Compression mode : Lossy
Stream size : 366 MiB (8%)
Language : Russian

Text
ID : 3
Format : UTF-8
Codec ID : S_TEXT/UTF8
Codec ID/Info : UTF-8 Plain Text
Language : English
pb.wtf



Скачать Три дня на побег через торрент http://img839.imageshack.us/img839/3149/thenextthreedays.png Скачать фильм Три дня на побег через торрент бесплантно в хорошем качестве Описание: Жизнь Джона казалась идеальной, пока его красавицу жену не арестовали по подозрению в убийстве. Пока Лара сидит в тюрьме, Джон ... 9.9 10 11
Info! Золотая раздача, скачанное не засчитывается.
Торрент: Зарегистрирован [2011-06-03 12:58] · скачан: 605 раз
Статус: √ проверено
Размер: 4.37 GB
Как cкачать? Как скачать Три дня на побег через торрент | qTorrent

% Раздел Тема Автор DL S | L
* Фильмы [HD 720p, 1080p] (Хороший звук DUB, MVO) [ 9.22 GB ] Три дня на побег / The Next Three Days [2010 BDRip-HEVC 1080p] DUB RealOldGamer Скачать
3 | 0
Фильмы [HD 720p, 1080p] (Хороший звук DUB, MVO) [ 19.77 GB ] Три дня на побег / The Next Three Days [2010 BDRip 1080p] 2xDUB DVO AVO Леонид Ильич Скачать
2 | 0
Фильмы [HD 720p, 1080p] (Хороший звук DUB, MVO) [ 9.66 GB ] Три дня на побег / The Next Three Days [2010 BDRip 720p] Dub MVO AVO potroks Скачать
1 | 0
Фильмы 2010 [ 1.37 GB ] Три дня на побег / Next Three Days The [2010 HDRip лицензия] Lil Badun Скачать
1 | 0
Фильмы 2010 [ 2.05 GB ] Три дня на побег / Next Three Days The [2010 HDRip лицензия] L_E_X Скачать
1 | 0
Фильмы 2010 [ 1.47 GB ] Три дня на побег / The Next Three Days [2010 BDRip-AVC] Sудья Скачать
1 | 0
Фильмы 2010 [ 2.1 GB ] Три дня на побег / The Next Three Days [2010 HDRip-AVC] DUB stalonе Скачать
1 | 2


Последний раз редактировалось: smaster (2011-06-13 14:34), всего редактировалось 4 раз(а)

28-11-2019 20:33  

Отключить всю рекламу на сайте

03-06-2011 13:51 Три дня на побег Скачать торрент  

рус boxart :ad:
pb.wtf



03-06-2011 17:01 Три дня на побег Скачать торрент  

=Gringo=
Спасибо )pb.wtf



    Дорогой пользователь! Огромная просьба, поблагодарите релизера, оцените раздачу и оставьте свои комментарий, если Вы скачали Три дня на побег через торрент бесплатно! Внесите свою лепту в развитие PiratBit!
    Комментировать посты могут только пользователи прошедшие не сложную регистрацию
    Показать сообщения:    

    Три дня на побег через торрент
    Скачать бесплатно Три дня на побег
    Три дня на побег скачать торрент
    Три дня на побег смотреть онлайн
    Cкачать фильм Три дня на побег бесплатно
    Три дня на побег скачать торрент в хорошем качестве
    Три дня на побег смотреть онлайн бесплатно в хорошем качестве


    Вы не можете начинать темы
    Вы не можете отвечать на сообщения
    Вы не можете редактировать свои сообщения
    Вы не можете удалять свои сообщения
    Вы не можете голосовать в опросах
    Вы не можете прикреплять файлы к сообщениям
    Вы можете скачивать файлы