1 сезон

3 сезон

iTunes

1

iTunes

MVO

iTunes

13

1 сезон

RePack

30

Deluxe

pack

Лицензия

ВАЖНО

ИГРА 18+

pack

RePack

MK11

RePack

jed

RePack

fifa19

RePack

RDR2

RePack

NEED FOR SPEED™ PAYBACK

4 сезон

9 сезон

Бесстыжие 9 сезон

Все сериалы

все сериалы на PB.wtf

RePack

FAR CRY 5

Anonymous, добрый вечер, мы катастрофически не успеваем собрать деньги на оплату серверов, помогите нам пожалуйста 5,10,15р., для нас важна любая помощь . В качестве благодарности мы отключим Вам всю рекламу на сайте (укажите свой ник в строку Ваше имя)!

×
  
Magnet ссылка

Крест / Cross (Патрик Дархэм / Patrick Durham) [2011, США, фэнтези, боевик, DVD9] R5 «Columbia/Sonpb.wtf

Крест через торрент pb.wtf

Размер: 5.96 GB | Добавлен: 10 лет назад | Торрент скачан:116 раз
Скачать  

04-06-2011 09:49 Крест Скачать торрент  


Крест / Cross
Страна: США
Студия: Carr Miller Entertainment, Fat Monster Films, Morningstar Films, Soular Entertainment, Tactical Media Productions, Truth and Grace Films, Truth and Grace Pictures
Жанр: фэнтези, боевик
Год выпуска: 2011
Мировая премьера: 31 мая 2011
Дата выхода DVD: 9 июня 2011, «Columbia/Sony»
Продолжительность: 01:40:38
Перевод: Профессиональный (многоголосый закадровый) [Лицензия]
Cубтитры: английские, чешские, польские, арабские, греческие, хинди, португальские, румынские, словацкие, турецкие, украинские
Оригинальная аудиодорожка: английский
Режиссер: Патрик Дархэм / Patrick Durham
В ролях: Майкл Кларк Дункан, Винни Джонс, С. Томас Хауэлл, Брайан Остин Грин, Том Сайзмор, Джейк Бьюзи, Роберт Кэрредин, Уильям Забка, Сьюзи Абромейт, Лори Хёринг
Описание: Получая невероятную силу от древнего кельтского креста, Каллан продолжает бороться со злом. Теперь совместно с командой специалистов по вооружению Каллан противостоит непреклонной империи в Лос Анжелесе...
Бонусы: Альтернативный финал, удаленные сцены, раскадровка альтернативного начала

Качество: DVD9 R5
Формат: DVD-Video
Видео кодек: MPEG2
Аудио кодек: AC3
Видео: PAL 16:9 (720x576(0.600)) MPEG Video,25,000 кадр/сек, 6221 Кбит/сек
Аудио #1: Russian (Dolby AC3, 6 ch) 384 Кбит/сек, 48,0 КГц
Аудио #2: English (Dolby AC3, 6 ch) 448 Кбит/сек, 48,0 КГц
Аудио #3: Czech(Ceske) (Dolby AC3, 6 ch) 384 Кбит/сек, 48,0 КГц
Аудио #4: Polish (Dolby AC3, 2 ch) 192 Кбит/сек, 48,0 КГц
Аудио #5: English (Dolby AC3, 2 ch) 192 Кбит/сек, 48,0 КГц [комментарии режиссера]



Title: Мой диск
Size: 5.96 Gb ( 6 250 224 KBytes ) - DVD-9
Enabled regions: 1, 2, 3, 4, 5, 6, 7, 8

VTS_01 :
Play Length: 01:40:38
Video: PAL 16:9 (720x576) VBR, Auto Letterboxed
Audio:
English (Dolby AC3, 6 ch)
Russian (Dolby AC3, 6 ch)
Czech(Ceske) (Dolby AC3, 6 ch)
Polish (Dolby AC3, 2 ch)
English (Dolby AC3, 2 ch)
Subtitles:
English
Russian
Czech(Ceske)
Polish
Arabic
Greek
Hindi
Portugues
Romanian
Slovak
Turkish
Ukrainian
English
Not specified
Not specified
Not specified
Not specified
Not specified
Not specified
Not specified
Not specified
Not specified
Not specified
Not specified
Not specified

VTS_02 :
Play Length: 00:00:34
Video: PAL 16:9 (720x576) VBR, Auto Letterboxed
Audio:
English (Dolby AC3, 2 ch)
Subtitles:
English

VTS_03 :
Play Length: 00:08:15+00:01:00+00:00:57+00:00:52+00:00:26+00:00:32+00:02:20+00:02:37
Video: PAL 16:9 (720x576) VBR, Auto Letterboxed
Audio:
English (Dolby AC3, 2 ch)
Subtitles:
English

VTS_04 :
Play Length: 00:01:02
Video: PAL 16:9 (720x576) VBR, Auto Letterboxed
Audio:
English (Dolby AC3, 2 ch)

VTS_05 :
Play Length: 00:00:14
Video: PAL 16:9 (720x576) VBR, Auto Pan&Scan
Audio:
English (Dolby AC3, 6 ch)

VTS_06 :
Play Length: 00:00:10
Video: PAL 16:9 (720x576) VBR, Auto Letterboxed

VTS_07 :
Play Length: 00:00:08
Video: PAL 16:9 (720x576) VBR, Auto Letterboxed

VTS_08 :
Play Length: 00:00:10
Video: PAL 4:3 (720x576) VBR
Audio:
English (Dolby AC3, 6 ch)
Subtitles:
Russian
Czech(Ceske)
Polish
Arabic
Greek
Hindi
Portugues
Romanian
Slovak
Turkish

VTS_09 :
Play Length: 00:00:09
Video: PAL 16:9 (720x576) VBR, Auto Pan&Scan

VTS_10 :
Play Length: 00:00:09
Video: PAL 16:9 (720x576) VBR, Auto Pan&Scan

VTS_11 :
Play Length: 00:00:09
Video: PAL 16:9 (720x576) VBR, Auto Pan&Scan

VTS_12 :
Play Length: 00:00:09
Video: PAL 16:9 (720x576) VBR, Auto Pan&Scan

VTS_13 :
Play Length: 00:00:09
Video: PAL 16:9 (720x576) VBR, Auto Pan&Scan

VTS_14 :
Play Length: 00:00:09
Video: PAL 16:9 (720x576) VBR, Auto Pan&Scan

VTS_15 :
Play Length: 00:00:09
Video: PAL 16:9 (720x576) VBR, Auto Pan&Scan

VTS_16 :
Play Length: 00:00:09
Video: PAL 16:9 (720x576) VBR, Auto Pan&Scan

VTS_17 :
Play Length: 00:00:09
Video: PAL 16:9 (720x576) VBR, Auto Pan&Scan

VTS_18 :
Play Length: 00:00:09
Video: PAL 16:9 (720x576) VBR, Auto Pan&Scan

VTS_19 :
Play Length: 00:00:09
Video: PAL 16:9 (720x576) VBR, Auto Pan&Scan
Общее
Полное имя : F:\Новинки 2011\Krest.2011.DVD9\VIDEO_TS\VTS_01_5.VOB
Формат : MPEG-PS
Размер файла : 1024 Мбайт
Продолжительность : 17 м.
Общий поток : 7980 Кбит/сек

Видео
Идентификатор : 224 (0xE0)
Формат : MPEG Video
Версия формата : Version 2
Профиль формата : Main@Main
Параметр BVOP формата : Да
Параметр матрицы формата : По умолчанию
Продолжительность : 17 м.
Вид битрейта : Переменный
Битрейт : 6221 Кбит/сек
Номинальный битрейт : 9800 Кбит/сек
Ширина : 720 пикс.
Высота : 576 пикс.
Соотношение сторон : 16:9
Частота кадров : 25,000 кадр/сек
Стандарт вещания : PAL
Цветовое пространство : YUV
Подвыборка цветности : 4:2:0
Битовая глубина : 8 бит
Тип развёртки : Чересстрочная
Порядок развёртки : Верхнее поле первое
Метод сжатия : С потерями
Бит/(Пиксели*Кадры) : 0.600
Размер потока : 798 Мбайт (78%)

Аудио #1
Идентификатор : 189 (0xBD)-128 (0x80)
Формат : AC-3
Формат/Информация : Audio Coding 3
Расширение режима : CM (complete main)
Режим смешивания : DVD-Video
Продолжительность : 17 м.
Вид битрейта : Постоянный
Битрейт : 448 Кбит/сек
Канал(ы) : 6 канала(ов)
Расположение каналов : Front: L C R, Side: L R, LFE
Частота : 48,0 КГц
Битовая глубина : 16 бит
Метод сжатия : С потерями
Задержка видео : -400 мс.
Размер потока : 57,5 Мбайт (6%)

Аудио #2
Идентификатор : 189 (0xBD)-129 (0x81)
Формат : AC-3
Формат/Информация : Audio Coding 3
Расширение режима : CM (complete main)
Режим смешивания : DVD-Video
Продолжительность : 17 м.
Вид битрейта : Постоянный
Битрейт : 384 Кбит/сек
Канал(ы) : 6 канала(ов)
Расположение каналов : Front: L C R, Side: L R, LFE
Частота : 48,0 КГц
Битовая глубина : 16 бит
Метод сжатия : С потерями
Задержка видео : -368 мс.
Размер потока : 49,3 Мбайт (5%)

Аудио #3
Идентификатор : 189 (0xBD)-130 (0x82)
Формат : AC-3
Формат/Информация : Audio Coding 3
Расширение режима : CM (complete main)
Режим смешивания : DVD-Video
Продолжительность : 17 м.
Вид битрейта : Постоянный
Битрейт : 384 Кбит/сек
Канал(ы) : 6 канала(ов)
Расположение каналов : Front: L C R, Side: L R, LFE
Частота : 48,0 КГц
Битовая глубина : 16 бит
Метод сжатия : С потерями
Задержка видео : -368 мс.
Размер потока : 49,3 Мбайт (5%)

Аудио #4
Идентификатор : 189 (0xBD)-131 (0x83)
Формат : AC-3
Формат/Информация : Audio Coding 3
Профиль формата : Dolby Digital
Расширение режима : CM (complete main)
Режим смешивания : DVD-Video
Продолжительность : 17 м.
Вид битрейта : Постоянный
Битрейт : 192 Кбит/сек
Канал(ы) : 2 канала(ов)
Расположение каналов : Front: L R
Частота : 48,0 КГц
Битовая глубина : 16 бит
Метод сжатия : С потерями
Задержка видео : -336 мс.
Размер потока : 24,6 Мбайт (2%)

Аудио #5
Идентификатор : 189 (0xBD)-132 (0x84)
Формат : AC-3
Формат/Информация : Audio Coding 3
Профиль формата : Dolby Digital
Расширение режима : CM (complete main)
Режим смешивания : DVD-Video
Продолжительность : 17 м.
Вид битрейта : Постоянный
Битрейт : 192 Кбит/сек
Канал(ы) : 2 канала(ов)
Расположение каналов : Front: L R
Частота : 48,0 КГц
Битовая глубина : 16 бит
Метод сжатия : С потерями
Задержка видео : -336 мс.
Размер потока : 24,6 Мбайт (2%)










pb.wtf



Скачать Крест через торрент http://i4.imageban.ru/out/2011/06/04/658d9738465b276d243b65d77fadcf04.jpg Скачать фильм Крест через торрент бесплантно в хорошем качестве Описание: Получая невероятную силу от древнего кельтского креста, Каллан продолжает бороться со злом. Теперь совместно с командой ... 4.6 10 16
Info! Золотая раздача, скачанное не засчитывается.
Торрент: Зарегистрирован [2011-06-04 09:49] · скачан: 116 раз
Статус: √ проверено
Размер: 5.96 GB
Как cкачать? Как скачать Крест через торрент | UTorrent

28-11-2019 20:33  

Отключить всю рекламу на сайте

04-06-2011 10:17 Крест Скачать торрент  

Как качество?pb.wtf



04-06-2011 10:23 Крест Скачать торрент  

опа опа...скока знакомых лиц на постере...полюбас качаю...Спасибо :good2:pb.wtf



04-06-2011 13:00 Крест Скачать торрент  

Блин фильм разочаровал,снят как сериал причем не самый хороший,типичная тема убийства всех людей на земле силами зла,графика на 2 - .pb.wtf



10-06-2011 16:24 Крест Скачать торрент  

НЕОЧЕНЬ НО МОЖНО ГЛЯНУТЬpb.wtf



    Дорогой пользователь! Огромная просьба, поблагодарите релизера, оцените раздачу и оставьте свои комментарий, если Вы скачали Крест через торрент бесплатно! Внесите свою лепту в развитие PiratBit!
    Комментировать посты могут только пользователи прошедшие не сложную регистрацию
    Показать сообщения:    

    Крест через торрент
    Скачать бесплатно Крест
    Крест скачать торрент
    Крест смотреть онлайн
    Cкачать фильм Крест бесплатно
    Крест скачать торрент в хорошем качестве
    Крест смотреть онлайн бесплатно в хорошем качестве


    Вы не можете начинать темы
    Вы не можете отвечать на сообщения
    Вы не можете редактировать свои сообщения
    Вы не можете удалять свои сообщения
    Вы не можете голосовать в опросах
    Вы не можете прикреплять файлы к сообщениям
    Вы можете скачивать файлы