новый адрес пиратбит piratbit
Мега распродажа FORZA HORIZON 4 ULTIMATE+ВСЕ DLC+ОНЛАЙН всего за 499р. 349 руб. (супер цена). Внимание количество ограничено!!!

iTunes

1+1

iTunes

мы

iTunes

1

iTunes

Чернобыль

iTunes

Ральф против интернета

Лицензия

ПШазам

Лицензия

Игра престолов

Лицензия

30
pack

ВАЖНО

!!Акция!!

Alien_RageХит недели

RePack

Resident Evil 21

ИГРА 18+

pack

RePack

Metro:Exodus

!!Акция!!

Alien_Rage

RePack

fifa19

RePack

Assassins Creed: Odyssey

RePack

NEED FOR SPEED™ PAYBACK

3 сезон

9 сезон

Бесстыжие 9 сезон

Все сериалы

все сериалы на PB.wtf

RePack

FAR CRY 5
Ребята, катастрофически не хватает 1900р. для оплаты серверов за Октябрь (всвязи с блокировками трафик упал в 3 раза), 1-2р., выручайте.
  

Побег из Шоушенка / The Shawshank Redemption (Фрэнк Дарабонт) [1994 г., драма, криминал, BDRip 1080p] pb.wtf

Побег из Шоушенка через торрент pb.wtf

Размер: 4.3 GB | Добавлен: 8 лет 5 мес. назад | Торрент скачан:725 раз
Скачать  

04-06-2011 19:19 Побег из Шоушенка Скачать торрент  

Побег из Шоушенка
The Shawshank Redemption




Год выпуска: 1994
Страна: США
Жанр: драма, криминал
Продолжительность: 02:22:33
Перевод: Профессиональный (многоголосый, закадровый)

Режиссер: Фрэнк Дарабонт

В ролях: Тим Роббинс ,Морган Фриман,Боб Гантон,Уильям Сэдлер,Клэнси Браун,Джил Беллоуз,Марк Ролстон,Джеймс Уитмор,Джеффри ДеМунн,Ларри Бранденбург

Описание: Шоушенк название тюрьмы. И если тебе нет еще 30-ти, а ты получаешь пожизненное, то приготовься к худшему: для тебя выхода из Шоушенка не будет! Актриса Рита Хэйворт любимица всей Америки. Энди Дюфрейну она тоже очень нравилась. Рита никогда не слышала о существовании Энди, однако жизнь Дюфрейну, бывшему вице-президенту крупного банка, осужденному за убийство жены и ее любовника, Рита Хэйворт все-таки спасла.

Семпл

Качество: BDRip 1080p
Формат: MKV
Видео кодек: AVC
Аудио кодек: AC3
Видео: AVC, 3 225 Kbps, 1920 x 1080 pixels, 23.976 fps, Bits/(Pixel*Frame) : 0.065
Аудио: AC-3, 448 Kbps, 6 channels, 48.0 KHz(русский)AC-3, 640 Kbps, 6 channels, 48.0 KHz(английский)
Субтитры: Russian,Ukrainian , English,French,German - UTF-8
Complete name The_Shawshank_Redemption_BDRip_1080p.mkv
Format : Matroska
File size : 4.30 GiB
Duration : 2h 22mn
Overall bit rate : 4 314 Kbps
Encoded date : UTC 2010-04-03 05:52:04
Writing application : mkvmerge v3.3.0 ('Language') built on Mar 24 2010 14:59:24
Writing library : libebml v0.8.0 + libmatroska v0.9.0

Video
ID : 1
Format : AVC
Format/Info : Advanced Video Codec
Format profile : High@L5.1
Format settings, CABAC : Yes
Format settings, ReFrames : 16 frames
Codec ID : V_MPEG4/ISO/AVC
Duration : 2h 22mn
Bit rate : 3 225 Kbps
Width : 1 920 pixels
Height : 1 080 pixels
Display aspect ratio : 16:9
Frame rate : 23.976 fps
Color space : YUV
Chroma subsampling : 4:2:0
Bit depth : 8 bits
Scan type : Progressive
Bits/(Pixel*Frame) : 0.065
Stream size : 3.13 GiB (73%)
Writing library : x264 core 92 r1510 33d382a
Encoding settings : cabac=1 / ref=16 / deblock=1:-3:-3 / analyse=0x3:0x133 / me=umh / subme=7 / psy=1 / psy_rd=1.00:0.15 / mixed_ref=1 / me_range=18 / chroma_me=1 / trellis=1 / 8x8dct=1 / cqm=0 / deadzone=21,11 / fast_pskip=1 / chroma_qp_offset=-3 / threads=3 / sliced_threads=0 / nr=0 / decimate=1 / interlaced=0 / constrained_intra=0 / bframes=3 / b_pyramid=2 / b_adapt=2 / b_bias=0 / direct=3 / wpredb=1 / wpredp=2 / keyint=250 / keyint_min=25 / scenecut=40 / intra_refresh=0 / rc_lookahead=40 / rc=2pass / mbtree=1 / bitrate=3225 / ratetol=1.0 / qcomp=0.60 / qpmin=10 / qpmax=51 / qpstep=4 / cplxblur=20.0 / qblur=0.5 / ip_ratio=1.40 / aq=1:1.00
Language : English

Audio #1
ID : 2
Format : AC-3
Format/Info : Audio Coding 3
Mode extension : CM (complete main)
Codec ID : A_AC3
Duration : 2h 22mn
Bit rate mode : Constant
Bit rate : 448 Kbps
Channel(s) : 6 channels
Channel positions : Front: L C R, Side: L R, LFE
Sampling rate : 48.0 KHz
Bit depth : 16 bits
Compression mode : Lossy
Stream size : 457 MiB (10%)
Language : Russian

Audio #2
ID : 3
Format : AC-3
Format/Info : Audio Coding 3
Mode extension : CM (complete main)
Codec ID : A_AC3
Duration : 2h 22mn
Bit rate mode : Constant
Bit rate : 640 Kbps
Channel(s) : 6 channels
Channel positions : Front: L C R, Side: L R, LFE
Sampling rate : 48.0 KHz
Bit depth : 16 bits
Compression mode : Lossy
Stream size : 653 MiB (15%)
Language : English

Text #1
ID : 4
Format : UTF-8
Codec ID : S_TEXT/UTF8
Codec ID/Info : UTF-8 Plain Text
Language : Russian

Text #2
ID : 5
Format : UTF-8
Codec ID : S_TEXT/UTF8
Codec ID/Info : UTF-8 Plain Text
Language : Ukrainian

Text #3
ID : 6
Format : UTF-8
Codec ID : S_TEXT/UTF8
Codec ID/Info : UTF-8 Plain Text
Language : English

Text #4
ID : 7
Format : UTF-8
Codec ID : S_TEX
pb.wtf



Скачать Побег из Шоушенка через торрент http://i22.fastpic.ru/big/2011/0604/17/ffc31ac28ddc239bcc610b0e6fe6ed17.png Скачать фильм Побег из Шоушенка через торрент бесплантно в хорошем качестве Описание: Шоушенк название тюрьмы. И если тебе нет еще 30-ти, а ты получаешь пожизненное, то приготовься к худшему: для тебя выхода из ... 10 10 13
Info! Золотая раздача, скачанное не засчитывается.
Торрент: Зарегистрирован [2011-06-04 19:19] · скачан: 725 раз
Статус: √ проверено
Размер: 4.3 GB
Как cкачать? Как скачать Побег из Шоушенка через торрент | qTorrent

% Раздел Тема Автор DL S | L
Фильмы до 2000 г. [ 886 MB ] Побег из Шоушенка / The Shawshank Redemption [1994 HDRip by _Один_777] MVO Один 777 Скачать
1 | 0
Фильмы до 2000 г. [ 1.46 GB ] Побег из Шоушенка / The Shawshank Redemption [1994 BDRip] killermax2013 Скачать
2 | 0
Фильмы [HD 720p, 1080p] (Хороший звук DUB, MVO) [ 29.31 GB ] Побег из Шоушенка / The Shawshank Redemption [1994 BDRip 1080p ] MVO + DVO + AVO + Original den7z8 Скачать
1 | 0
Фильмы [HD 720p, 1080p] (Хороший звук DUB, MVO) [ 13.93 GB ] Побег из Шоушенка / The Shawshank Redemption [1994 BDRip 1080p] smaster Скачать
2 | 0
Фильмы (BDRip, HDrip-AVC) (48-60 fps) [ 3.89 GB ] Побег из Шоушенка / The Shawshank Redemption [1994 BDRip-AVC / 60fps MVO] от R.G. HD-Films Ressident Скачать
2 | 0
Фильмы (Blu-ray, BD-Remux, HDDVD) [ 38.83 GB ] Побег из Шоушенка / The Shawshank Redemption [1994 BD-Remux 1080p] 4xMVO + 2xDVO + 6xAVO + Ukr + Original Артронах Скачать
1 | 0
Фильмы до 2000 г. [ 3.35 GB ] Побег из Шоушенка / Shawshank Redemption The [1994 BDRip] feldeger Скачать
1 | 0


Последний раз редактировалось: smaster (2011-07-28 19:45), всего редактировалось 3 раз(а)


>> Регистрируемся здесь <<






Отзывы и комментарии о схеме читаем и пишем здесь: ---> Отзывы и комментарии о схеме

Новые благодарочки в телеграм довольных пользователей:
скриншот   скриншот   скриншот   скриншот   скриншот

04-06-2011 19:26 Побег из Шоушенка Скачать торрент  

Мировое кино, занимает 1 место в рейтинге IMDb топ 250! Кто не смотрел, советую посмотреть )pb.wtf



04-06-2011 19:44 Побег из Шоушенка Скачать торрент  

Дааа фильм просто супер)pb.wtf



04-06-2011 22:56 Побег из Шоушенка Скачать торрент  

один из самых лучших фильмов в истории.pb.wtf



07-01-2015 07:34 Побег из Шоушенка Скачать торрент  

особенно скриншоты поразили ;) - это реклама directupload.net?pb.wtf



    Дорогой пользователь! Огромная просьба, поблагодарите релизера, оцените раздачу и оставьте свои комментарий, если Вы скачали Побег из Шоушенка через торрент бесплатно! Внесите свою лепту в развитие PiratBit!
    Комментировать посты могут только пользователи прошедшие не сложную регистрацию
    Показать сообщения:    

    Побег из Шоушенка через торрент
    Скачать бесплатно Побег из Шоушенка
    Побег из Шоушенка скачать торрент
    Побег из Шоушенка смотреть онлайн
    Cкачать фильм Побег из Шоушенка бесплатно
    Побег из Шоушенка скачать торрент в хорошем качестве
    Побег из Шоушенка смотреть онлайн бесплатно в хорошем качестве


    Вы не можете начинать темы
    Вы не можете отвечать на сообщения
    Вы не можете редактировать свои сообщения
    Вы не можете удалять свои сообщения
    Вы не можете голосовать в опросах
    Вы не можете прикреплять файлы к сообщениям
    Вы можете скачивать файлы