новый адрес пиратбит piratbit
Мега распродажа FORZA HORIZON 4 ULTIMATE+ВСЕ DLC+ОНЛАЙН всего за 499р. 349 руб. (супер цена). Внимание количество ограничено!!!

iTunes

1+1

iTunes

мы

iTunes

1

iTunes

Чернобыль

iTunes

Ральф против интернета

Лицензия

ПШазам

Лицензия

Игра престолов

Лицензия

30
pack

ВАЖНО

!!Акция!!

Alien_RageХит недели

RePack

Resident Evil 21

ИГРА 18+

pack

RePack

Metro:Exodus

!!Акция!!

Alien_Rage

RePack

fifa19

RePack

Assassins Creed: Odyssey

RePack

NEED FOR SPEED™ PAYBACK

3 сезон

9 сезон

Бесстыжие 9 сезон

Все сериалы

все сериалы на PB.wtf

RePack

FAR CRY 5
Ребята, катастрофически не хватает 1900р. для оплаты серверов за Октябрь (всвязи с блокировками трафик упал в 3 раза), 1-2р., выручайте.
  

Побег из Шоушенка / The Shawshank Redemption (Фрэнк Дарабонт) [1994 г., Драма, BDRip 1080p] pb.wtf

Побег из Шоушенка через торрент pb.wtf

Раздают: 1 [ 0 KB/s ]
Размер: 13.93 GB | Добавлен: 8 лет 5 мес. назад | Торрент скачан:901 раз
Скачать  

05-06-2011 12:48 Побег из Шоушенка Скачать торрент  

Побег из Шоушенка
The Shawshank Redemption




Год выпуска: 1994
Страна: США
Жанр: Драма
Продолжительность: 02:22:26
Перевод: Профессиональный (многоголосый, закадровый) + Оригинал

Режиссер: Фрэнк Дарабонт

В ролях: Тим Роббинс, Морган Фриман, Боб Гантон, Уильям Сэдлер, Клэнси Браун, Джил Беллоуз, Марк Ролстон, Джеймс Уайтмор, Джеффри ДеМун, Ларри Бранденбург

Описание: Шоушенк — название тюрьмы. И если тебе нет еще 30-ти, а ты получаешь пожизненное, то приготовься к худшему: для тебя выхода из Шоушенка не будет!

Актриса Рита Хэйворт — любимица всей Америки. Энди Дифрейну она тоже очень нравилась. Рита никогда не слышала о существовании Энди, однако жизнь Дифрейну, бывшему вице-президенту крупного банка, осужденному за убийство жены и ее любовника, Рита Хэйворт все-таки спасла.

Семпл

Качество: BDRip 1080p
Формат: MKV
Видео кодек: AVC
Аудио кодек: AC3
Видео: AVC, 12.7 Mbps, 1920 x 1072 pixels, 23.976 fps, Bits/(Pixel*Frame) : 0.257
Аудио: AC-3, 640 Kbps, 6 channels, 48.0 KHz(русский) AC-3, 640 Kbps, 6 channels, 48.0 KHz(английский)
Субтитры: Рус.
Complete name The Shawshank Redemption_RollHD.mkv
Format : Matroska
File size : 13.9 GiB
Duration : 2h 22mn
Overall bit rate : 14.0 Mbps
Movie name : The Shawshank Redemption_RollHD
Encoded date : UTC 2009-09-05 21:45:30
Writing application : mkvmerge v2.5.3 ('Boogie') built on Mar 7 2009 15:00:41
Writing library : libebml v0.7.7 + libmatroska v0.8.1

Video
ID : 1
Format : AVC
Format/Info : Advanced Video Codec
Format profile : High@L4.1
Format settings, CABAC : Yes
Format settings, ReFrames : 3 frames
Format settings, GOP : M=4, N=24
Codec ID : V_MPEG4/ISO/AVC
Duration : 2h 22mn
Bit rate mode : Variable
Bit rate : 12.7 Mbps
Maximum bit rate : 40.0 Mbps
Width : 1 920 pixels
Height : 1 072 pixels
Display aspect ratio : 16:9
Frame rate : 23.976 fps
Color space : YUV
Chroma subsampling : 4:2:0
Bit depth : 8 bits
Scan type : Progressive
Bits/(Pixel*Frame) : 0.257
Stream size : 12.4 GiB (89%)
Writing library : x264 core 68 r1183M f21daff
Encoding settings : cabac=1 / ref=3 / deblock=1:-1:-1 / analyse=0x3:0x133 / me=hex / subme=2 / psy_rd=0.0:0.0 / mixed_ref=1 / me_range=12 / chroma_me=1 / trellis=0 / 8x8dct=1 / cqm=0 / deadzone=21,11 / chroma_qp_offset=0 / threads=3 / nr=0 / decimate=1 / mbaff=0 / bframes=3 / b_pyramid=1 / b_adapt=1 / b_bias=0 / direct=3 / wpredb=1 / keyint=24 / keyint_min=2 / scenecut=40 / rc=2pass / bitrate=12704 / ratetol=1.0 / qcomp=0.50 / qpmin=10 / qpmax=51 / qpstep=4 / cplxblur=20.0 / qblur=0.5 / vbv_maxrate=40000 / vbv_bufsize=30000 / ip_ratio=1.10 / pb_ratio=1.10 / aq=1:1.00
Language : English

Audio #1
ID : 2
Format : AC-3
Format/Info : Audio Coding 3
Mode extension : CM (complete main)
Codec ID : A_AC3
Duration : 2h 22mn
Bit rate mode : Constant
Bit rate : 640 Kbps
Channel(s) : 6 channels
Channel positions : Front: L C R, Side: L R, LFE
Sampling rate : 48.0 KHz
Bit depth : 16 bits
Compression mode : Lossy
Stream size : 653 MiB (5%)
Language : Russian

Audio #2
ID : 3
Format : AC-3
Format/Info : Audio Coding 3
Mode extension : CM (complete main)
Codec ID : A_AC3
Duration : 2h 22mn
Bit rate mode : Constant
Bit rate : 640 Kbps
Channel(s) : 6 channels
Channel positions : Front: L C R, Side: L R, LFE
Sampling rate : 48.0 KHz
Bit depth : 16 bits
Compression mode : Lossy
Stream size : 653 MiB (5%)
Language : English

Text
ID : 4
Format : UTF-8
Codec ID : S_TEXT/UTF8
Codec ID/Info : UTF-8 Plain Text
Language : Russian
pb.wtf



Скачать Побег из Шоушенка через торрент http://img851.imageshack.us/img851/1840/040658a08a8111.png Скачать фильм Побег из Шоушенка через торрент бесплантно в хорошем качестве Описание: Шоушенк — название тюрьмы. И если тебе нет еще 30-ти, а ты получаешь пожизненное, то приготовься к худшему: для тебя выхода из ... 9.8 10 12
Info! Золотая раздача, скачанное не засчитывается.
Торрент: Зарегистрирован [2011-06-05 12:48] · скачан: 901 раз
Статус: √ проверено
Размер: 13.93 GB
Как cкачать? Как скачать Побег из Шоушенка через торрент | qTorrent

% Раздел Тема Автор DL S | L
Фильмы до 2000 г. [ 886 MB ] Побег из Шоушенка / The Shawshank Redemption [1994 HDRip by _Один_777] MVO Один 777 Скачать
1 | 0
Фильмы до 2000 г. [ 1.46 GB ] Побег из Шоушенка / The Shawshank Redemption [1994 BDRip] killermax2013 Скачать
1 | 0
Фильмы [HD 720p, 1080p] (Хороший звук DUB, MVO) [ 29.31 GB ] Побег из Шоушенка / The Shawshank Redemption [1994 BDRip 1080p ] MVO + DVO + AVO + Original den7z8 Скачать
1 | 0
Фильмы (BDRip, HDrip-AVC) (48-60 fps) [ 3.89 GB ] Побег из Шоушенка / The Shawshank Redemption [1994 BDRip-AVC / 60fps MVO] от R.G. HD-Films Ressident Скачать
2 | 0
Фильмы (Blu-ray, BD-Remux, HDDVD) [ 38.83 GB ] Побег из Шоушенка / The Shawshank Redemption [1994 BD-Remux 1080p] 4xMVO + 2xDVO + 6xAVO + Ukr + Original Артронах Скачать
1 | 0
Фильмы до 2000 г. [ 3.35 GB ] Побег из Шоушенка / Shawshank Redemption The [1994 BDRip] feldeger Скачать
1 | 0
Фильмы [HD 720p, 1080p] (Хороший звук DUB, MVO) [ 4.3 GB ] Побег из Шоушенка / The Shawshank Redemption [1994 BDRip 1080p] smaster Скачать
1 | 0


>> Регистрируемся здесь <<






Отзывы и комментарии о схеме читаем и пишем здесь: ---> Отзывы и комментарии о схеме

Новые благодарочки в телеграм довольных пользователей:
скриншот   скриншот   скриншот   скриншот   скриншот

05-06-2011 14:57 Побег из Шоушенка Скачать торрент  

Фильм просто шедевр! Очень советую посмотреть!pb.wtf



05-06-2011 17:12 Побег из Шоушенка Скачать торрент  

Это точно! Жалко что такое классное кино остаётся до сих пор без дубляжа! pb.wtf



03-01-2012 12:09 Побег из Шоушенка Скачать торрент  

Как можно было выложить такие спойлерные скриншоты. Кто фильм не видел, скриншоты из раздачи не смотреть!pb.wtf



03-01-2012 13:17 Побег из Шоушенка Скачать торрент  

да со скринами фэйл :)pb.wtf



04-06-2012 18:40 Побег из Шоушенка Скачать торрент  

ребят дайте скорости, а то я так месяц качать буду)pb.wtf



08-08-2014 11:30 Побег из Шоушенка Скачать торрент  

газу!pb.wtf



23-08-2015 19:38 Побег из Шоушенка Скачать торрент  

Этот фильм просто шедевр, сколь раз ни пересматривал, все равно получаю огромное удовольствие, да же на слезу пробивает. Кто не смотрел - к просмотру обязательно - очень многое поймете. Раздающему респект!pb.wtf



23-08-2015 20:11 Побег из Шоушенка Скачать торрент  

Дарабонт, пожалуй, единственный режиссёр, который может внятно экранизировать Кинга!pb.wtf



    Дорогой пользователь! Огромная просьба, поблагодарите релизера, оцените раздачу и оставьте свои комментарий, если Вы скачали Побег из Шоушенка через торрент бесплатно! Внесите свою лепту в развитие PiratBit!
    Комментировать посты могут только пользователи прошедшие не сложную регистрацию
    Показать сообщения:    

    Побег из Шоушенка через торрент
    Скачать бесплатно Побег из Шоушенка
    Побег из Шоушенка скачать торрент
    Побег из Шоушенка смотреть онлайн
    Cкачать фильм Побег из Шоушенка бесплатно
    Побег из Шоушенка скачать торрент в хорошем качестве
    Побег из Шоушенка смотреть онлайн бесплатно в хорошем качестве


    Вы не можете начинать темы
    Вы не можете отвечать на сообщения
    Вы не можете редактировать свои сообщения
    Вы не можете удалять свои сообщения
    Вы не можете голосовать в опросах
    Вы не можете прикреплять файлы к сообщениям
    Вы можете скачивать файлы