1 сезон

3 сезон

iTunes

1

Line

MVO

iTunes

13

1 сезон

RePack

30

Deluxe

pack

Лицензия

ВАЖНО

ИГРА 18+

pack

RePack

MK11

RePack

jed

RePack

fifa19

RePack

RDR2

RePack

NEED FOR SPEED™ PAYBACK

4 сезон

9 сезон

Бесстыжие 9 сезон

Все сериалы

все сериалы на PB.wtf

RePack

FAR CRY 5

Anonymous, добрый вечер, мы катастрофически не успеваем собрать деньги на оплату серверов, помогите нам пожалуйста 5,10,15р., для нас важна любая помощь . В качестве благодарности мы отключим Вам всю рекламу на сайте (укажите свой ник в строку Ваше имя)!

×
  
Magnet ссылка

Землетрясение / Tangshan da dizhen (Фэн Сяоган / Feng Xiaogang) [2010, Китай, драма, DVD9] R5 «Мистерия Звука» pb.wtf

Землетрясение через торрент pb.wtf

Размер: 7.34 GB | Добавлен: 10 лет назад | Торрент скачан:18 раз
Скачать  

06-06-2011 08:54 Землетрясение Скачать торрент  


Землетрясение / Tangshan da dizhen
«Одно мгновение может изменить твою жизнь навсегда...»
Страна: Китай
Студия: China Film Group Corporation, Emperor Motion Pictures, Huayi Brothers, Media Asia Films Ltd., Shanghai Film Group, Tangshan City Government, Zhejiang Television
Жанр: драма
Год выпуска: 2010
Мировая премьера: 22 июля 2010
Российская премьера: 14 апреля 2011, «Кинопром»
Дата выхода DVD: 2 июня 2011, «Мистерия Звука»
Продолжительность: 02:10:03
Перевод: Профессиональный (дублированный) [Лицензия]
Cубтитры: нет
Режиссер: Фэн Сяоган / Feng Xiaogang
В ролях: Ван Цзывэнь, Юн Мэй, Чжан Гоцян, Ли Чэн, Чжан Цзинчу, Лу И, Чен Цзинь, Чэнь Даомин, Сюй Фань
Описание: Землетрясение в городе Таншане (провинция Хэбэй) 1976 года длилось меньше чем полминуты, но унесло несколько сотен тысяч жизней. Эти секунды поставили мать перед невозможным выбором — спасти сына или дочь, и спасение обернулось грузом вины на десятилетия.
Бонусы: Смотрите на DVD

Качество: DVD9 R5
Формат: DVD-Video
Видео кодек: MPEG2
Аудио кодек: AC3
Видео: PAL 16:9 (720x576(0.668)) MPEG Video,25,000 кадр/сек, 6930 Кбит/сек
Аудио: Russian (Dolby AC3, 6 ch) 448 Кбит/сек, 48,0 КГц



Title: Мой диск
Size: 7.34 Gb ( 7 693 438 KBytes ) - DVD-9
Enabled regions: 1, 2, 3, 4, 5, 6, 7, 8

VTS_01 :
Play Length: 00:00:16
Video: PAL 16:9 (720x576) VBR, Auto Letterboxed
Audio:
Russian (Dolby AC3, 2 ch)

VTS_02 :
Play Length: 02:10:03
Video: PAL 16:9 (720x576) VBR, Auto Letterboxed
Audio:
Russian (Dolby AC3, 6 ch)

VTS_03 :
Play Length: 00:01:52+00:01:41+00:02:20
Video: PAL 16:9 (720x576) VBR, Auto Letterboxed
Audio:
Russian (Dolby AC3, 2 ch)
Общее
Полное имя : F:\Новинки 2011\Zemletrasenie.2010.DVD9\VIDEO_TS\VTS_02_2.VOB
Формат : MPEG-PS
Размер файла : 1023 Мбайт
Продолжительность : 19 м.
Общий поток : 7528 Кбит/сек

Видео
Идентификатор : 224 (0xE0)
Формат : MPEG Video
Версия формата : Version 2
Профиль формата : Main@Main
Параметр BVOP формата : Да
Параметр матрицы формата : По умолчанию
Параметры GOP формата : M=3, N=15
Продолжительность : 19 м.
Вид битрейта : Переменный
Битрейт : 6930 Кбит/сек
Номинальный битрейт : 8500 Кбит/сек
Ширина : 720 пикс.
Высота : 576 пикс.
Соотношение сторон : 16:9
Частота кадров : 25,000 кадр/сек
Стандарт вещания : PAL
Цветовое пространство : YUV
Подвыборка цветности : 4:2:0
Битовая глубина : 8 бит
Тип развёртки : Прогрессивная
Метод сжатия : С потерями
Бит/(Пиксели*Кадры) : 0.668
Размер потока : 942 Мбайт (92%)

Аудио
Идентификатор : 189 (0xBD)-128 (0x80)
Формат : AC-3
Формат/Информация : Audio Coding 3
Расширение режима : CM (complete main)
Режим смешивания : DVD-Video
Продолжительность : 19 м.
Вид битрейта : Постоянный
Битрейт : 448 Кбит/сек
Канал(ы) : 6 канала(ов)
Расположение каналов : Front: L C R, Side: L R, LFE
Частота : 48,0 КГц
Битовая глубина : 16 бит
Метод сжатия : С потерями
Задержка видео : -288 мс.
Размер потока : 60,9 Мбайт (6%)










pb.wtf



Скачать Землетрясение через торрент http://i1.imageban.ru/out/2011/06/06/2ca559b8fe974e867508a5bc59a6dec0.jpg Скачать фильм Землетрясение через торрент бесплантно в хорошем качестве Описание: Землетрясение в городе Таншане (провинция Хэбэй) 1976 года длилось меньше чем полминуты, но унесло несколько сотен тысяч жизней. ... 5 10 3
Info! Золотая раздача, скачанное не засчитывается.
Торрент: Зарегистрирован [2011-06-06 08:54] · скачан: 18 раз
Статус: √ проверено
Размер: 7.34 GB
Как cкачать? Как скачать Землетрясение через торрент | UTorrent

28-11-2019 20:33  

Отключить всю рекламу на сайте

    Дорогой пользователь! Огромная просьба, поблагодарите релизера, оцените раздачу и оставьте свои комментарий, если Вы скачали Землетрясение через торрент бесплатно! Внесите свою лепту в развитие PiratBit!
    Комментировать посты могут только пользователи прошедшие не сложную регистрацию
    Показать сообщения:    

    Землетрясение через торрент
    Скачать бесплатно Землетрясение
    Землетрясение скачать торрент
    Землетрясение смотреть онлайн
    Cкачать фильм Землетрясение бесплатно
    Землетрясение скачать торрент в хорошем качестве
    Землетрясение смотреть онлайн бесплатно в хорошем качестве


    Вы не можете начинать темы
    Вы не можете отвечать на сообщения
    Вы не можете редактировать свои сообщения
    Вы не можете удалять свои сообщения
    Вы не можете голосовать в опросах
    Вы не можете прикреплять файлы к сообщениям
    Вы можете скачивать файлы