1 сезон

3 сезон

iTunes

1

Line

MVO

iTunes

13

1 сезон

RePack

30

Deluxe

pack

Лицензия

ВАЖНО

ИГРА 18+

pack

RePack

MK11

RePack

jed

RePack

fifa19

RePack

RDR2

RePack

NEED FOR SPEED™ PAYBACK

4 сезон

9 сезон

Бесстыжие 9 сезон

Все сериалы

все сериалы на PB.wtf

RePack

FAR CRY 5

Anonymous, доброй ночи, мы катастрофически не успеваем собрать деньги на оплату серверов, помогите нам пожалуйста 5,10,15р., для нас важна любая помощь . В качестве благодарности мы отключим Вам всю рекламу на сайте (укажите свой ник в строку Ваше имя)!

×
  
Magnet ссылка

Короли улиц 2 / Street Kings 2: Motor City (Крис Фишер / Chris Fisher) [2011, США, боевик, драма, криминал, DVD9] R2 «Двадцатый Век Фокс СНГ» pb.wtf

Короли улиц 2 через торрент pb.wtf

Размер: 6.71 GB | Добавлен: 10 лет назад | Торрент скачан:44 раза
Скачать  

07-06-2011 09:08 Короли улиц 2 Скачать торрент  


Короли улиц 2 / Street Kings 2: Motor City
Страна: США
Студия: Silver Nitrate Films
Жанр: боевик, драма, криминал
Год выпуска: 2011
Мировая премьера: 19 апреля 2011
Дата выхода DVD: 7 июля 2011, «Двадцатый Век Фокс СНГ»
Дата выхода Blu-Ray: 7 июля 2011, «Двадцатый Век Фокс СНГ»
Продолжительность: 01:28:36
Перевод: Профессиональный (многоголосый закадровый) [Лицензия] R2
Cубтитры: русские, английские, испанские, португальские, эстонские, греческие, исландские, польские, румынские, турецкие, латвийские, литовские
Оригинальная аудиодорожка: английский
Режиссер: Крис Фишер / Chris Fisher
В ролях: Рэй Лиотта, Шон Хэтоси, Скотт Норман, Клифтон Пауэлл, Кевин Чэпмен, Инбар Лави, Шарлотта Росс, Стефани Коттон, Линда Бостон, Кори Эмануэл Уилсон...
Описание: Рэй Лиотта обеспечивает интенсивную и напряженную работу в этом взрывчатом продолжении городского криминального триллера Короли улиц. Лиотта играет Детройтского детектива Марти Кингстона, лидера полицейских под прикрытием, которые были систематически убиты один за другим. Чтобы раскрыть зверские убийства, Кингстон объединяет свои усилия с дерзким и молодым детективом из отдела по расследованиям убийств. Но ни один из них не готов к шокирующей коррупции, их расследования будут раскрывать ошеломленные тайны, которые заставят столкнуться их с предательством и местью.
Бонусы: Удаленные сцены, Измененные сцены, История создания фильма

Качество: DVD9 R2
Формат: DVD-Video
Видео кодек: MPEG2
Аудио кодек: AC3
Видео: PAL 16:9 (720x576(0.640)) MPEG Video,25,000 кадр/сек, 6631 Кбит/сек
Аудио #1: English (Dolby AC3, 6 ch) 448 Кбит/сек, 48,0 КГц
Аудио #2: Espanol (Dolby AC3, 6 ch) 384 Кбит/сек, 48,0 КГц
Аудио #3: Russian (Dolby AC3, 6 ch) 384 Кбит/сек, 48,0 КГц
Аудио #4: Polish (Dolby AC3, 6 ch) 384 Кбит/сек, 48,0 КГц



Title: Мой диск
Size: 6.71 Gb ( 7 039 794 KBytes ) - DVD-9
Enabled regions: 1, 2, 3, 4, 5, 6, 7, 8

VTS_01 :
Play Length:
Video: PAL 16:9 (720x576) VBR, Auto Pan&Scan
Audio:
Not specified (Dolby AC3, 2 ch)
Not specified (Dolby AC3, 2 ch)
Not specified (Dolby AC3, 2 ch)
Not specified (Dolby AC3, 2 ch)
Not specified (Dolby AC3, 2 ch)
Not specified (Dolby AC3, 2 ch)
Not specified (Dolby AC3, 2 ch)
Not specified (Dolby AC3, 2 ch)
Subtitles:
Not specified
Not specified
Not specified
Not specified
Not specified
Not specified
Not specified
Not specified
Not specified
Not specified
Not specified
Not specified

VTS_02 :
Play Length: 00:00:39+00:00:38+00:01:01
Video: PAL 16:9 (720x576) VBR, Auto Letterboxed
Audio:
Not specified (Dolby AC3, 2 ch)
Subtitles:
Not specified
Not specified
Not specified
Not specified
Not specified
Not specified
Not specified
Not specified

VTS_03 :
Play Length: 00:00:24
Video: PAL 16:9 (720x576) VBR, Auto Letterboxed
Audio:
Not specified (Dolby AC3, 6 ch)

VTS_04 :
Play Length:
Video: PAL 16:9 (720x576) VBR, Auto Letterboxed

VTS_05 :
Play Length: 01:28:36
Video: PAL 16:9 (720x576) VBR, Auto Letterboxed
Audio:
English (Dolby AC3, 6 ch)
Espanol (Dolby AC3, 6 ch)
Russian (Dolby AC3, 6 ch)
Polish (Dolby AC3, 6 ch)
Subtitles:
English
Espanol
Portugues
Russian
Arabic
Estonian
Greek
Islenska
Polish
Romanian
Turkish
Latvian
Lithuanian
Espanol
Russian
Polish

VTS_06 :
Play Length: 00:02:10+00:05:12+00:04:59+00:04:38+00:12:11+00:04:17+00:03:34+00:04:20
Video: PAL 16:9 (720x576) VBR, Auto Letterboxed
Audio:
English (Dolby AC3, 2 ch)
Subtitles:
Espanol
Общее
Полное имя : F:\Новинки 2011\Koroli.ulits.2.2011.P.DVD9\VIDEO_TS\VTS_05_1.VOB
Формат : MPEG-PS
Размер файла : 1024 Мбайт
Продолжительность : 17 м.
Общий поток : 8398 Кбит/сек

Видео
Идентификатор : 224 (0xE0)
Формат : MPEG Video
Версия формата : Version 2
Профиль формата : Main@Main
Параметр BVOP формата : Да
Параметр матрицы формата : По умолчанию
Параметры GOP формата : M=3, N=12
Продолжительность : 17 м.
Вид битрейта : Переменный
Битрейт : 6631 Кбит/сек
Номинальный битрейт : 9800 Кбит/сек
Ширина : 720 пикс.
Высота : 576 пикс.
Соотношение сторон : 16:9
Частота кадров : 25,000 кадр/сек
Стандарт вещания : Component
Цветовое пространство : YUV
Подвыборка цветности : 4:2:0
Битовая глубина : 8 бит
Тип развёртки : Прогрессивная
Порядок развёртки : Верхнее поле первое
Метод сжатия : С потерями
Бит/(Пиксели*Кадры) : 0.640
Размер потока : 809 Мбайт (79%)

Аудио #1
Идентификатор : 189 (0xBD)-128 (0x80)
Формат : AC-3
Формат/Информация : Audio Coding 3
Расширение режима : CM (complete main)
Режим смешивания : DVD-Video
Продолжительность : 17 м.
Вид битрейта : Постоянный
Битрейт : 448 Кбит/сек
Канал(ы) : 6 канала(ов)
Расположение каналов : Front: L C R, Side: L R, LFE
Частота : 48,0 КГц
Битовая глубина : 16 бит
Метод сжатия : С потерями
Размер потока : 54,6 Мбайт (5%)

Аудио #2
Идентификатор : 189 (0xBD)-129 (0x81)
Формат : AC-3
Формат/Информация : Audio Coding 3
Расширение режима : CM (complete main)
Режим смешивания : DVD-Video
Продолжительность : 17 м.
Вид битрейта : Постоянный
Битрейт : 384 Кбит/сек
Канал(ы) : 6 канала(ов)
Расположение каналов : Front: L C R, Side: L R, LFE
Частота : 48,0 КГц
Битовая глубина : 16 бит
Метод сжатия : С потерями
Размер потока : 46,8 Мбайт (5%)

Аудио #3
Идентификатор : 189 (0xBD)-130 (0x82)
Формат : AC-3
Формат/Информация : Audio Coding 3
Расширение режима : CM (complete main)
Режим смешивания : DVD-Video
Продолжительность : 17 м.
Вид битрейта : Постоянный
Битрейт : 384 Кбит/сек
Канал(ы) : 6 канала(ов)
Расположение каналов : Front: L C R, Side: L R, LFE
Частота : 48,0 КГц
Битовая глубина : 16 бит
Метод сжатия : С потерями
Размер потока : 46,8 Мбайт (5%)

Аудио #4
Идентификатор : 189 (0xBD)-131 (0x83)
Формат : AC-3
Формат/Информация : Audio Coding 3
Расширение режима : CM (complete main)
Режим смешивания : DVD-Video
Продолжительность : 17 м.
Вид битрейта : Постоянный
Битрейт : 384 Кбит/сек
Канал(ы) : 6 канала(ов)
Расположение каналов : Front: L C R, Side: L R, LFE
Частота : 48,0 КГц
Битовая глубина : 16 бит
Метод сжатия : С потерями
Размер потока : 46,8 Мбайт (5%)










pb.wtf



Скачать Короли улиц 2 через торрент http://i2.imageban.ru/out/2011/06/07/8a21dc2e078a25a3c579b955ea126078.png Скачать фильм Короли улиц 2 через торрент бесплантно в хорошем качестве Описание: Рэй Лиотта обеспечивает интенсивную и напряженную работу в этом взрывчатом продолжении городского криминального триллера Короли ... 5 10 7
Info! Золотая раздача, скачанное не засчитывается.
Торрент: Зарегистрирован [2011-06-07 09:08] · скачан: 44 раз
Статус: √ проверено
Размер: 6.71 GB
Как cкачать? Как скачать Короли улиц 2 через торрент | UTorrent

28-11-2019 20:33  

Отключить всю рекламу на сайте

    Дорогой пользователь! Огромная просьба, поблагодарите релизера, оцените раздачу и оставьте свои комментарий, если Вы скачали Короли улиц 2 через торрент бесплатно! Внесите свою лепту в развитие PiratBit!
    Комментировать посты могут только пользователи прошедшие не сложную регистрацию
    Показать сообщения:    

    Короли улиц 2 через торрент
    Скачать бесплатно Короли улиц 2
    Короли улиц 2 скачать торрент
    Короли улиц 2 смотреть онлайн
    Cкачать фильм Короли улиц 2 бесплатно
    Короли улиц 2 скачать торрент в хорошем качестве
    Короли улиц 2 смотреть онлайн бесплатно в хорошем качестве


    Вы не можете начинать темы
    Вы не можете отвечать на сообщения
    Вы не можете редактировать свои сообщения
    Вы не можете удалять свои сообщения
    Вы не можете голосовать в опросах
    Вы не можете прикреплять файлы к сообщениям
    Вы можете скачивать файлы