Ссылка на приватное зеркало нашего сайта всего за 1$. Внимание количество ограничено!!!

2 сезон

iTunes

1 сезон

1

iTunes

iTunes

iTunes

1 сезон

RePack

30

ИГРА 18+

pack

ВАЖНО

!!Акция!!

Alien_RageХит недели

RePack

MK11
pack

Забери бонус

RePack

jed

!!Акция!!

Alien_Rage

RePack

fifa19

RePack

Assassins Creed: Odyssey

RePack

NEED FOR SPEED™ PAYBACK

4 сезон

9 сезон

Бесстыжие 9 сезон

Все сериалы

все сериалы на PB.wtf

RePack

FAR CRY 5
  

Ларго Винч 2: Заговор в Бирме / Largo Winch 2 (Жером Салль) [2011 г., триллер, приключения, BDRip 1080р] pb.wtf

Ларго Винч 2: Заговор в Бирме через торрент pb.wtf

Размер: 9.45 GB | Добавлен: 9 лет 4 мес. назад | Торрент скачан:81 раз
Скачать  

07-06-2011 19:50 Ларго Винч 2: Заговор в Бирме Скачать торрент  

Ларго Винч 2: Заговор в Бирме
Largo Winch 2




Год выпуска: 2011
Страна: Германия / Франция / Бельгия, Casa Productions
Жанр: триллер, приключения
Продолжительность: 01:53:33
Перевод: Дублированный [лицензия]

Режиссер: Жером Салль

В ролях: Томер Сислей, Шэрон Стоун, Ульрих Тукур, Напакпапха Накпраситте, Оливье Бартелеми, Лоран Терзиефф, Николас Воде, Клеменс Шик, Франсуа Монтагю, Анатоль Таубман

Описание: После убийства приёмного отца Ларго Винч становится президентом группы компаний «W Group». Но роль управленца огромной корпорации не подходит Ларго. Он объявляет о продаже «W Group» и создании гуманитарного фонда, который возглавит старый друг его отца. В день, когда договор подписан, Ларго обвиняют в преступлениях против человечества и финансировании режима бирманского генерала Мина.

Семпл

Качество: BDRip 1080р
Формат: MKV
Видео кодек: AVC
Аудио кодек: DTS
Видео: AVC, 9 936 Kbps, 1920 x 800 pixels, 24.000 fps, Bits/(Pixel*Frame) : 0.270
Аудио: DTS, 1 510 Kbps, 6 channels, 48.0 KHz
Complete name Largo.Vinch.2.Zagovor.v.Birme.2011.BDRip.1080p.mkv
Format : Matroska
File size : 9.45 GiB
Duration : 1h 58mn
Overall bit rate : 11.4 Mbps
Encoded date : UTC 2011-04-03 16:51:50
Writing application : mkvmerge v4.6.0 ('Still Crazy After All These Years') сборка от Mar 10 2011 02:50:32
Writing library : libebml v1.2.0 + libmatroska v1.1.0

Video
ID : 1
Format : AVC
Format/Info : Advanced Video Codec
Format profile : High@L4.1
Format settings, CABAC : Yes
Format settings, ReFrames : 5 frames
Codec ID : V_MPEG4/ISO/AVC
Duration : 1h 58mn
Bit rate : 9 936 Kbps
Width : 1 920 pixels
Height : 800 pixels
Display aspect ratio : 2.40:1
Frame rate : 24.000 fps
Color space : YUV
Chroma subsampling : 4:2:0
Bit depth : 8 bits
Scan type : Progressive
Bits/(Pixel*Frame) : 0.270
Stream size : 8.02 GiB (85%)
Writing library : x264 core 114 r1913 5fd3dce
Encoding settings : cabac=1 / ref=5 / deblock=1:-3:-3 / analyse=0x3:0x133 / me=umh / subme=10 / psy=1 / psy_rd=1.05:0.10 / mixed_ref=1 / me_range=64 / chroma_me=1 / trellis=2 / 8x8dct=1 / cqm=0 / deadzone=21,11 / fast_pskip=1 / chroma_qp_offset=-3 / threads=9 / sliced_threads=0 / nr=0 / decimate=1 / interlaced=0 / constrained_intra=0 / bframes=10 / b_pyramid=2 / b_adapt=2 / b_bias=0 / direct=3 / weightb=1 / open_gop=0 / weightp=2 / keyint=250 / keyint_min=24 / scenecut=40 / intra_refresh=0 / rc_lookahead=60 / rc=2pass / mbtree=1 / bitrate=9936 / ratetol=1.0 / qcomp=0.70 / qpmin=0 / qpmax=51 / qpstep=4 / cplxblur=20.0 / qblur=0.5 / vbv_maxrate=50000 / vbv_bufsize=62500 / nal_hrd=none / ip_ratio=1.40 / aq=1:0.80

Audio
ID : 2
Format : DTS
Format/Info : Digital Theater Systems
Codec ID : A_DTS
Duration : 1h 58mn
Bit rate mode : Constant
Bit rate : 1 510 Kbps
Channel(s) : 6 channels
Channel positions : Front: L C R, Side: L R, LFE
Sampling rate : 48.0 KHz
Bit depth : 16 bits
Compression mode : Lossy
Stream size : 1.25 GiB (13%)
Language : Russian
pb.wtf



Скачать Ларго Винч 2: Заговор в Бирме через торрент http://img29.imageshack.us/img29/7521/11111ba.png Скачать фильм Ларго Винч 2: Заговор в Бирме через торрент бесплантно в хорошем качестве Описание: После убийства приёмного отца Ларго Винч становится президентом группы компаний «W Group». Но роль управленца огромной корпорации ... 10 10 2
Info! Золотая раздача, скачанное не засчитывается.
Торрент: Зарегистрирован [2011-06-07 19:50] · скачан: 81 раз
Статус: √ проверено
Размер: 9.45 GB
Как cкачать? Как скачать Ларго Винч 2: Заговор в Бирме через торрент | qTorrent

% Раздел Тема Автор DL S | L
Фильмы [HD 720p, 1080p] (Хороший звук DUB, MVO) [ 6.53 GB ] Ларго Винч 2: Заговор в Бирме / Largo Winch II [2011 BDRip 720p лицензия] Ke$h@ Скачать
1 | 0
3D Фильмы [ 6.97 GB ] Ларго Винч 2: Заговор в Бирме 3D / Largo Winch 2 3D [2011 BDRip 1080p ] Half OverUnder / Вертикальная анаморфная стереопара slaventi-69 Скачать
1 | 1
Фильмы (Blu-ray, BD-Remux, HDDVD) [ 22 GB ] Ларго Винч 2: Заговор в Бирме / Largo Winch [2011 Blu-ray 1080p] DUB DEMIGOD2012 Скачать
1 | 0
Фильмы 2011 [ 2.05 GB ] Ларго Винч 2: Заговор в Бирме / Largo Winch [2011 HDRip] POCIK Скачать
1 | 0
Фильмы 2011 [ 1.37 GB ] Ларго Винч 2: Заговор в Бирме / Largo Winch 2 [2011 DVDRip лицензия] SD Скачать
1 | 0

28-11-2019 20:33  

Отключить всю рекламу на сайте

    Дорогой пользователь! Огромная просьба, поблагодарите релизера, оцените раздачу и оставьте свои комментарий, если Вы скачали Ларго Винч 2: Заговор в Бирме через торрент бесплатно! Внесите свою лепту в развитие PiratBit!
    Комментировать посты могут только пользователи прошедшие не сложную регистрацию
    Показать сообщения:    

    Ларго Винч 2: Заговор в Бирме через торрент
    Скачать бесплатно Ларго Винч 2: Заговор в Бирме
    Ларго Винч 2: Заговор в Бирме скачать торрент
    Ларго Винч 2: Заговор в Бирме смотреть онлайн
    Cкачать фильм Ларго Винч 2: Заговор в Бирме бесплатно
    Ларго Винч 2: Заговор в Бирме скачать торрент в хорошем качестве
    Ларго Винч 2: Заговор в Бирме смотреть онлайн бесплатно в хорошем качестве


    Вы не можете начинать темы
    Вы не можете отвечать на сообщения
    Вы не можете редактировать свои сообщения
    Вы не можете удалять свои сообщения
    Вы не можете голосовать в опросах
    Вы не можете прикреплять файлы к сообщениям
    Вы можете скачивать файлы