Ссылка на приватное зеркало нашего сайта всего за 1$. Внимание количество ограничено!!!

2 сезон

iTunes

1 сезон

1

iTunes

iTunes

iTunes

1 сезон

RePack

30

ИГРА 18+

pack

ВАЖНО

!!Акция!!

Alien_RageХит недели

RePack

MK11
pack

Забери бонус

RePack

jed

!!Акция!!

Alien_Rage

RePack

fifa19

RePack

Assassins Creed: Odyssey

RePack

NEED FOR SPEED™ PAYBACK

4 сезон

9 сезон

Бесстыжие 9 сезон

Все сериалы

все сериалы на PB.wtf

RePack

FAR CRY 5
  

Человек-волк / The Wolfman (Джо Джонстон) [2010 г., Ужасы, триллер, драма, BDRip 1080p] pb.wtf

Человек-волк через торрент pb.wtf

Размер: 11.25 GB | Добавлен: 9 лет 4 мес. назад | Торрент скачан:90 раз
Скачать  

08-06-2011 20:39 Человек-волк Скачать торрент  

Человек-волк
The Wolfman

(Режиссерская версия / Unrated Directors Cut)



Год выпуска: 2010
Страна: США, Великобритания
Жанр: Ужасы, триллер, драма
Продолжительность: 01:59:05
Перевод: Профессиональный (полное дублирование) [Лицензия]

Режиссер: Джо Джонстон

В ролях: Бенисио Дель Торо, Энтони Хопкинс, Саймон Мерреллс, Джемма Уилан, Эмили Блант, Аса Баттерфилд, Кристина Контес, Арт Малик, Малкольм Скэтес, Хьюго Уивинг

Описание: Эта история разворачивается в Великобритании. Герой возвращается на Родину из Америки для того, чтобы найти без вести пропавшего брата. До него доходят слухи о том, что в предмеcтьях города обитает страшное существо, которое разрывает на части жителей окрестных деревень. Дело расследует полиция Скотланд-Ярда, вскоре их заинтересовывает джентльмен, приехавший на поиски брата.

Семпл

Качество: BDRip 1080p
Формат: MKV
Видео кодек: AVC
Аудио кодек: AC3
Видео: AVC, 11.6 Mbps, 1920 x 1040 pixels, 23.976 fps, Bits/(Pixel*Frame) : 0.243
Аудио: AC-3, 384 Kbps, 6 channels, 48.0 KHz : ru DTS, 1 510 Kbps, 6 channels, 48.0 KHz : en
Text #1
ID : 4
Format : UTF-8
Codec ID : S_TEXT/UTF8
Codec ID/Info : UTF-8 Plain Text
Language : Russian

Text #2
ID : 5
Format : ASS
Codec ID : S_TEXT/ASS
Codec ID/Info : Advanced Sub Station Alpha
Compression mode : Lossless
Language : English
Complete name The.Wolfman.2010.UNRATED.BDRip.1080p.x264-WiKi.mkv
Format : Matroska
File size : 11.3 GiB
Duration : 1h 59mn
Overall bit rate : 13.5 Mbps
Movie name : Wolfman (2010)
Encoded date : UTC 2010-06-12 05:57:26
Writing application : mkvmerge v3.3.0 ('Language') built on Mar 24 2010 14:59:24
Writing library : libebml v0.8.0 + libmatroska v0.9.0
Cover : Yes / Yes / Yes

Video
ID : 2
Format : AVC
Format/Info : Advanced Video Codec
Format profile : High@L4.1
Format settings, CABAC : Yes
Format settings, ReFrames : 4 frames
Codec ID : V_MPEG4/ISO/AVC
Duration : 1h 59mn
Bit rate : 11.6 Mbps
Width : 1 920 pixels
Height : 1 040 pixels
Display aspect ratio : 16:9
Frame rate : 23.976 fps
Color space : YUV
Chroma subsampling : 4:2:0
Bit depth : 8 bits
Scan type : Progressive
Bits/(Pixel*Frame) : 0.243
Stream size : 9.46 GiB (84%)
Writing library : x264 core 84 r1400M 20fa784
Encoding settings : cabac=1 / ref=4 / deblock=1:-3:-3 / analyse=0x3:0x113 / me=umh / subme=9 / psy=1 / psy_rd=1.1:0.1 / mixed_ref=1 / me_range=32 / chroma_me=1 / trellis=2 / 8x8dct=1 / cqm=0 / deadzone=21,11 / fast_pskip=0 / chroma_qp_offset=-5 / threads=24 / sliced_threads=0 / nr=0 / decimate=0 / mbaff=0 / constrained_intra=0 / bframes=6 / b_pyramid=2 / b_adapt=2 / b_bias=0 / direct=3 / wpredb=1 / wpredp=2 / keyint=250 / keyint_min=25 / scenecut=40 / intra_refresh=0 / rc_lookahead=48 / rc=2pass / mbtree=1 / bitrate=11630 / ratetol=1.0 / qcomp=0.60 / qpmin=10 / qpmax=51 / qpstep=4 / cplxblur=20.0 / qblur=0.5 / ip_ratio=1.40 / aq=1:0.80 / pulldown=0 / nal_hrd=0
Language : English

Audio #1
ID : 1
Format : AC-3
Format/Info : Audio Coding 3
Mode extension : CM (complete main)
Codec ID : A_AC3
Duration : 1h 59mn
Bit rate mode : Constant
Bit rate : 384 Kbps
Channel(s) : 6 channels
Channel positions : Front: L C R, Side: L R, LFE
Sampling rate : 48.0 KHz
Bit depth : 16 bits
Compression mode : Lossy
Stream size : 327 MiB (3%)
Title : AC3 5.1 @ 384 kbps - Дублированный
Language : Russian

Audio #2
ID : 3
Format : DTS
Format/Info : Digital Theater Systems
Codec ID : A_DTS
Duration : 1h 59mn
Bit rate mode : Constant
Bit rate : 1 510 Kbps
Channel(s) : 6 channels
Channel positions : Front: L C R, Side: L R, LFE
Sampling rate : 48.0 KHz
Bit depth : 24 bits
Compression mode : Lossy
Stream size : 1.26 GiB (11%)
Language : English

Text #1
ID : 4
Format : UTF-8
Codec ID : S_TEXT/UTF8
Codec ID/Info : UTF-8 Plain Text
Language : Russian

Text #2
ID : 5
Format : ASS
Codec ID : S_TEXT/ASS
Codec ID/Info : Advanced Sub Station Alpha
Compression mode : Lossless
Language : English

Menu #1
00:00:00.000 : en:Full

Menu #2
00:00:00.000 : en:Main
01:59:05.633 : en:Alternate Ending
01:52:07.966 : en:End credits

Menu #3
00:00:00.000 : en:Main
02:00:32.678 : en:Alternate Ending
01:52:07.966 : en:End credits
pb.wtf



Скачать Человек-волк через торрент http://img822.imageshack.us/img822/4507/555y.png Скачать фильм Человек-волк через торрент бесплантно в хорошем качестве Описание: Эта история разворачивается в Великобритании. Герой возвращается на Родину из Америки для того, чтобы найти без вести пропавшего ... 10 10 4
Info! Золотая раздача, скачанное не засчитывается.
Торрент: Зарегистрирован [2011-06-08 20:39] · скачан: 90 раз
Статус: √ проверено
Размер: 11.25 GB
Как cкачать? Как скачать Человек-волк через торрент | qTorrent

% Раздел Тема Автор DL S | L
Фильмы (HD 720p, 1080p) (48-60 fps) [ 7.82 GB ] Человек-волк / The Wolfman [2010 BDRip 720p 60fps DUB] [Unrated Director's Cut] mimok Скачать
1 | 0
Фильмы 2010 [ 2.05 GB ] Человек-волк / The Wolfman [UNRATED] [2010 HDRip лицензия] SD Скачать
1 | 0
Фильмы 2010 [ 2.18 GB ] Человек-волк / The Wolfman [2010 BDRip| Режиссерская версия / Unrated Directors Cut от HELLYWOOD] ~Relizer~ Скачать
1 | 0
Фильмы 2010 [ 745 MB ] Человек-волк / Wolfman The [2010 ... HDRip лицензия] Andruuha Скачать
1 | 0
Фильмы [HD 720p, 1080p] (Хороший звук DUB, MVO) [ 6.86 GB ] Человек-волк / The Wolfman [2010 BDRip 720p] [Режиссерская версия] Venxxx Скачать
1 | 0
Фильмы 2010 [ 1.45 GB ] Человек-волк / The Wolfman [2010 HDRip] aspace Скачать
2 | 0
Фильмы [HD 720p, 1080p] (Хороший звук DUB, MVO) [ 2.19 GB ] Человек-волк [Режиссерская версия] / The Wolfman [Unrated Directors Cut] [2010 BDRip 720p.] diletant Скачать
1 | 0

28-11-2019 20:33  

Отключить всю рекламу на сайте

09-06-2011 07:32 Человек-волк Скачать торрент  

Хорошее кино! Спасибо!pb.wtf



09-06-2011 17:57 Человек-волк Скачать торрент  

Fixa2011
Пожалуйста.
Приятного просмотра!pb.wtf



19-03-2016 20:05 Человек-волк Скачать торрент  

Достойный фильм об оборотнях, посмотрел с удовольствием. Качество хорошее, звук тоже отличный. pb.wtf



    Дорогой пользователь! Огромная просьба, поблагодарите релизера, оцените раздачу и оставьте свои комментарий, если Вы скачали Человек-волк через торрент бесплатно! Внесите свою лепту в развитие PiratBit!
    Комментировать посты могут только пользователи прошедшие не сложную регистрацию
    Показать сообщения:    

    Человек-волк через торрент
    Скачать бесплатно Человек-волк
    Человек-волк скачать торрент
    Человек-волк смотреть онлайн
    Cкачать фильм Человек-волк бесплатно
    Человек-волк скачать торрент в хорошем качестве
    Человек-волк смотреть онлайн бесплатно в хорошем качестве


    Вы не можете начинать темы
    Вы не можете отвечать на сообщения
    Вы не можете редактировать свои сообщения
    Вы не можете удалять свои сообщения
    Вы не можете голосовать в опросах
    Вы не можете прикреплять файлы к сообщениям
    Вы можете скачивать файлы