Ссылка на приватное зеркало нашего сайта всего за 1$. Внимание количество ограничено!!!

2 сезон

iTunes

1 сезон

1

iTunes

iTunes

iTunes

1 сезон

RePack

30

ИГРА 18+

pack

ВАЖНО

!!Акция!!

Alien_RageХит недели

RePack

MK11
pack

Забери бонус

RePack

jed

!!Акция!!

Alien_Rage

RePack

fifa19

RePack

Assassins Creed: Odyssey

RePack

NEED FOR SPEED™ PAYBACK

4 сезон

9 сезон

Бесстыжие 9 сезон

Все сериалы

все сериалы на PB.wtf

RePack

FAR CRY 5
  

Куджо / Cujo (Льюис Тиг) [1983 г., ужасы, триллер, BDRip 1080р] pb.wtf

Куджо через торрент pb.wtf

Размер: 7.28 GB | Добавлен: 9 лет 4 мес. назад | Торрент скачан:18 раз
Скачать  

12-06-2011 19:22 Куджо Скачать торрент  

Куджо
Cujo




Год выпуска: 1983
Страна: США
Жанр: ужасы, триллер
Продолжительность: 01:32:47
Перевод: Профессиональный (многоголосый, закадровый) + Одноголосый (Визгунов)

Режиссер: Льюис Тиг

Сценарий: Стивен Кинг, Дон Карлос Данауэй, Лоурен Куррье

В ролях: Ди Уоллес /Dee Wallace/, Дэнни Пинтауро /Danny Pintauro/, Дэниэл Хью-Келли /Daniel Hugh-Kelly/, Кристофер Стоун /Christopher Stone/, Эд Лоутер /Ed Lauter/, Кайюлани Ли /Kaiulani Lee/, Билли Джейкоби /Billy Jacoby/, Миллз Уотсон /Mills Watson/, Сэнди Уорд /Sandy Ward/, Джерри Хардин /Jerry Hardin/

Описание: Заразившись бешенством после укуса летучей мыши, сенбернар автомеханика Джо Кэмбера по имени Куджо насмерть загрызает его соседа Гари. Обнаружив растерзанный труп, Джо пытается вызывать полицию, однако, не успев произнести ни слова, становится следующей жертвой обезумевшего пса. Тем временем, в мастерскую Кэмбера приезжает соседка Донна с сынишкой Тедом...

Качество: BDRip 1080р
Формат: MKV
Видео кодек: AVC
Аудио кодек: AC3
Видео: AVC, 10.1 Mbps, 1920 x 1040 pixels, 23.976 fps, Bits/(Pixel*Frame) : 0.212
Audio #0 AC-3, 192 Kbps, 2 channels, 48.0 KHz : ru
Audio #1 AC-3, 448 Kbps, 6 channels, 48.0 KHz : ru
Audio #2 AC-3, 448 Kbps, 6 channels, 48.0 KHz : en
Text #0 : UTF-8 : en
Complete name Kudzho.1080p.(x264,2xRus,Eng).by.HeDgEhOt.mkv
Format : Matroska
File size : 7.28 GiB
Duration : 1h 32mn
Overall bit rate : 11.2 Mbps
Encoded date : UTC 2010-04-21 21:31:05
Writing application : mkvmerge v3.2.0 ('Beginnings') built on Feb 12 2010 16:46:17
Writing library : libebml v0.7.9 + libmatroska v0.8.1

Video
ID : 1
Format : AVC
Format/Info : Advanced Video Codec
Format profile : High@L4.1
Format settings, CABAC : Yes
Format settings, ReFrames : 4 frames
Codec ID : V_MPEG4/ISO/AVC
Duration : 1h 32mn
Bit rate : 10.1 Mbps
Width : 1 920 pixels
Height : 1 040 pixels
Display aspect ratio : 16:9
Frame rate : 23.976 fps
Color space : YUV
Chroma subsampling : 4:2:0
Bit depth : 8 bits
Scan type : Progressive
Bits/(Pixel*Frame) : 0.212
Stream size : 6.43 GiB (88%)
Writing library : x264 core 78 r1309M 4d77de8
Encoding settings : cabac=1 / ref=4 / deblock=1:-1:-1 / analyse=0x3:0x113 / me=umh / subme=7 / psy=1 / psy_rd=1.0:0.0 / mixed_ref=1 / me_range=16 / chroma_me=1 / trellis=1 / 8x8dct=1 / cqm=0 / deadzone=21,11 / chroma_qp_offset=-2 / threads=3 / nr=0 / decimate=1 / mbaff=0 / constrained_intra=0 / bframes=3 / b_pyramid=2 / b_adapt=1 / b_bias=0 / direct=3 / wpredb=1 / keyint=250 / keyint_min=25 / scenecut=40 / rc=2pass / mbtree=0 / bitrate=10150 / ratetol=1.0 / qcomp=0.60 / qpmin=10 / qpmax=51 / qpstep=4 / cplxblur=20.0 / qblur=0.5 / ip_ratio=1.40 / pb_ratio=1.30 / aq=1:1.00
Language : English

Audio #1
ID : 2
Format : AC-3
Format/Info : Audio Coding 3
Mode extension : CM (complete main)
Codec ID : A_AC3
Duration : 1h 32mn
Bit rate mode : Constant
Bit rate : 192 Kbps
Channel(s) : 2 channels
Channel positions : Front: L R
Sampling rate : 48.0 KHz
Bit depth : 16 bits
Compression mode : Lossy
Stream size : 127 MiB (2%)
Language : Russian

Audio #2
ID : 3
Format : AC-3
Format/Info : Audio Coding 3
Mode extension : CM (complete main)
Codec ID : A_AC3
Duration : 1h 32mn
Bit rate mode : Constant
Bit rate : 448 Kbps
Channel(s) : 6 channels
Channel positions : Front: L C R, Side: L R, LFE
Sampling rate : 48.0 KHz
Bit depth : 16 bits
Compression mode : Lossy
Stream size : 297 MiB (4%)
Language : Russian

Audio #3
ID : 4
Format : AC-3
Format/Info : Audio Coding 3
Mode extension : CM (complete main)
Codec ID : A_AC3
Duration : 1h 32mn
Bit rate mode : Constant
Bit rate : 448 Kbps
Channel(s) : 6 channels
Channel positions : Front: L C R, Side: L R, LFE
Sampling rate : 48.0 KHz
Bit depth : 16 bits
Compression mode : Lossy
Stream size : 297 MiB (4%)
Language : English

Text
ID : 5
Format : UTF-8
Codec ID : S_TEXT/UTF8
Codec ID/Info : UTF-8 Plain Text
Language : English
pb.wtf



Скачать Куджо через торрент http://img189.imageshack.us/img189/6016/774455.png Скачать фильм Куджо через торрент бесплантно в хорошем качестве Описание: Заразившись бешенством после укуса летучей мыши, сенбернар автомеханика Джо Кэмбера по имени Куджо насмерть загрызает его соседа ... 5 10 2
Info! Золотая раздача, скачанное не засчитывается.
Торрент: Зарегистрирован [2011-06-12 19:22] · скачан: 18 раз
Статус: √ проверено
Размер: 7.28 GB
Как cкачать? Как скачать Куджо через торрент | qTorrent

% Раздел Тема Автор DL S | L
Фильмы до 2000 г. [ 686 MB ] Куджо / Cujo [1983 HDRip MVO] кэп Скачать
1 | 0

28-11-2019 20:33  

Отключить всю рекламу на сайте

12-06-2011 20:26 Куджо Скачать торрент  

книжку интереснее почитать)pb.wtf



12-06-2011 20:39 Куджо Скачать торрент  

хороший кин,начинается ни шатко ни валко,за-то вторая половина супер!!!pb.wtf



    Дорогой пользователь! Огромная просьба, поблагодарите релизера, оцените раздачу и оставьте свои комментарий, если Вы скачали Куджо через торрент бесплатно! Внесите свою лепту в развитие PiratBit!
    Комментировать посты могут только пользователи прошедшие не сложную регистрацию
    Показать сообщения:    

    Куджо через торрент
    Скачать бесплатно Куджо
    Куджо скачать торрент
    Куджо смотреть онлайн
    Cкачать фильм Куджо бесплатно
    Куджо скачать торрент в хорошем качестве
    Куджо смотреть онлайн бесплатно в хорошем качестве


    Вы не можете начинать темы
    Вы не можете отвечать на сообщения
    Вы не можете редактировать свои сообщения
    Вы не можете удалять свои сообщения
    Вы не можете голосовать в опросах
    Вы не можете прикреплять файлы к сообщениям
    Вы можете скачивать файлы