Ссылка на приватное зеркало нашего сайта всего за 1$. Внимание количество ограничено!!!

2 сезон

iTunes

1 сезон

1

iTunes

iTunes

iTunes

1 сезон

RePack

30

ИГРА 18+

pack

ВАЖНО

!!Акция!!

Alien_RageХит недели

RePack

MK11
pack

Забери бонус

RePack

jed

!!Акция!!

Alien_Rage

RePack

fifa19

RePack

Assassins Creed: Odyssey

RePack

NEED FOR SPEED™ PAYBACK

4 сезон

9 сезон

Бесстыжие 9 сезон

Все сериалы

все сериалы на PB.wtf

RePack

FAR CRY 5
  

Ханна. Совершенное оружие / Hanna (Джо Райт) [2011 г., боевик, триллер, криминал, детектив, BDRip 1080р] pb.wtf

Ханна. Совершенное оружие через торрент pb.wtf

Размер: 7.59 GB | Добавлен: 9 лет 4 мес. назад | Торрент скачан:275 раз
Скачать  

12-06-2011 20:54 Ханна. Совершенное оружие Скачать торрент  

Ханна. Совершенное оружие
Hanna




Год выпуска: 2011
Страна: США, Германия, Великобритания
Жанр: боевик, триллер, криминал, детектив
Продолжительность: 01:50:50
Перевод: Профессиональный (дублированный) Лицензия

Режиссер: Джо Райт

В ролях: Сирша Ронан, Эрик Бана, Кейт Бланшетт, Том Холландер, Пэрис Эрроусмит, Оливия Уильямс, Джейсон Флеминг, Джон Макмилла, Тим Бекманн, Вики Крипс

Описание: Хрупкая на первый взгляд Ханна - идеальный солдат. Тайна ее рождения ревностно охраняется американским правительством. Ее миссия - отомстить бывшим работодателям отца, некогда секретного агента. Спецслужбы всего мира выходят на след девочки-убийцы. Охота начинается...

Качество: BDRip 1080р
Формат: MKV
Видео кодек: AVC
Аудио кодек: DTS
Видео: AVC, 8 287 Kbps, 1920 x 816 pixels, 24.000 fps, Bits/(Pixel*Frame) : 0.220
Аудио: DTS, 1 510 Kbps, 6 channels, 48.0 KHz
Cубтитры: Русские (форсированные)
Complete name Hanna.Sovershennoe.Oruzhie.2011.DUB.BDRip.1080p.x264.DTS_Vaippp.mkv
Format : Matroska
File size : 7.59 GiB
Duration : 1h 50mn
Overall bit rate : 9 797 Kbps
Movie name : Hanna Sovershennoe Oruzhie / 2011 / Release by Vaippp
Encoded date : UTC 2011-06-11 11:46:05
Writing application : mkvmerge v4.8.0 ('I Got The...') сборка от May 24 2011 03:12:58
Writing library : libebml v1.2.0 + libmatroska v1.1.0

Video
ID : 1
Format : AVC
Format/Info : Advanced Video Codec
Format profile : High@L4.1
Format settings, CABAC : Yes
Format settings, ReFrames : 5 frames
Codec ID : V_MPEG4/ISO/AVC
Duration : 1h 50mn
Bit rate : 8 287 Kbps
Width : 1 920 pixels
Height : 816 pixels
Display aspect ratio : 2.35:1
Frame rate : 24.000 fps
Color space : YUV
Chroma subsampling : 4:2:0
Bit depth : 8 bits
Scan type : Progressive
Bits/(Pixel*Frame) : 0.220
Stream size : 6.27 GiB (83%)
Title : BDRip 1080 by Vaippp
Writing library : x264 core 115 r1995 c1e60b9
Encoding settings : cabac=1 / ref=5 / deblock=1:-1:-1 / analyse=0x3:0x133 / me=umh / subme=8 / psy=1 / psy_rd=1.00:0.05 / mixed_ref=1 / me_range=24 / chroma_me=1 / trellis=1 / 8x8dct=1 / cqm=0 / deadzone=21,11 / fast_pskip=1 / chroma_qp_offset=-3 / threads=12 / sliced_threads=0 / slices=4 / nr=0 / decimate=1 / interlaced=0 / bluray_compat=0 / constrained_intra=0 / bframes=3 / b_pyramid=2 / b_adapt=1 / b_bias=0 / direct=1 / weightb=1 / open_gop=0 / weightp=2 / keyint=250 / keyint_min=23 / scenecut=40 / intra_refresh=0 / rc_lookahead=40 / rc=2pass / mbtree=0 / bitrate=8287 / ratetol=1.0 / qcomp=0.65 / qpmin=1 / qpmax=65 / qpstep=4 / cplxblur=20.0 / qblur=0.5 / vbv_maxrate=40000 / vbv_bufsize=40000 / nal_hrd=none / ip_ratio=1.40 / pb_ratio=1.30 / aq=2:1.00
Language : English

Audio
ID : 2
Format : DTS
Format/Info : Digital Theater Systems
Codec ID : A_DTS
Duration : 1h 50mn
Bit rate mode : Constant
Bit rate : 1 510 Kbps
Channel(s) : 6 channels
Channel positions : Front: L C R, Side: L R, LFE
Sampling rate : 48.0 KHz
Bit depth : 24 bits
Compression mode : Lossy
Stream size : 1.17 GiB (15%)
Title : DUB
Language : Russian

Text
ID : 3
Format : UTF-8
Codec ID : S_TEXT/UTF8
Codec ID/Info : UTF-8 Plain Text
Title : Forced
Language : Russian

Menu
00:00:00.000 : en:00:00:00.000
00:12:15.250 : en:00:12:15.250
00:25:48.000 : en:00:25:48.000
00:37:55.042 : en:00:37:55.042
00:51:50.625 : en:00:51:50.625
01:03:38.958 : en:01:03:38.958
01:20:55.542 : en:01:20:55.542
01:29:20.917 : en:01:29:20.917
pb.wtf



Скачать Ханна. Совершенное оружие через торрент http://img52.imageshack.us/img52/6840/998qj.png Скачать фильм Ханна. Совершенное оружие через торрент бесплантно в хорошем качестве Описание: Хрупкая на первый взгляд Ханна - идеальный солдат. Тайна ее рождения ревностно охраняется американским правительством. Ее миссия ... 10 10 1
Info! Золотая раздача, скачанное не засчитывается.
Торрент: Зарегистрирован [2011-06-12 20:54] · скачан: 275 раз
Статус: √ проверено
Размер: 7.59 GB
Как cкачать? Как скачать Ханна. Совершенное оружие через торрент | qTorrent

% Раздел Тема Автор DL S | L
Фильмы 2011 [ 1.45 GB ] Ханна. Совершенное оружие / Hanna [2011 HDRip] Zormeg Скачать
1 | 0
Фильмы (Blu-ray, BD-Remux, HDDVD) [ 27.85 GB ] Ханна. Совершенное оружие / Hanna [2011 Германия BDRemux 1080p] DUB Sub Rus + Original Eng walle Скачать
1 | 0
Фильмы [HD 720p, 1080p] (Хороший звук DUB, MVO) [ 4.37 GB ] Ханна. Совершенное оружие / Hanna [2011 BDRip ] rulya74 Скачать
1 | 0
Фильмы [HD 720p, 1080p] (Хороший звук DUB, MVO) [ 15.1 GB ] Ханна. Совершенное оружие / Hanna [2011 Германия BDRip1080p] DUB Sub rus + original eng Shmel Скачать
1 | 0
Фильмы 2011 [ 1.36 GB ] Ханна. Совершенное оружие / Hanna [2011 DVDRip лицензия] SD Скачать
1 | 0
Фильмы 2011 [ 1.45 GB ] Ханна. Совершенное оружие / Hanna [2011 BDRip-AVC лицензия] shuller Скачать
1 | 0
Фильмы (DVD фильмы) [ 5 GB ] Ханна. Совершенное оружие / Hanna [2011 Германия DVD9] R5 «Вольга» voovaz Скачать
1 | 0


Последний раз редактировалось: smaster (2011-06-13 19:16), всего редактировалось 1 раз

28-11-2019 20:33  

Отключить всю рекламу на сайте

13-06-2011 04:09 Ханна. Совершенное оружие Скачать торрент  

классный фильмpb.wtf



13-06-2011 09:54 Ханна. Совершенное оружие Скачать торрент  

Да, фильм неплох, но слишком сюжет растянут.pb.wtf



    Дорогой пользователь! Огромная просьба, поблагодарите релизера, оцените раздачу и оставьте свои комментарий, если Вы скачали Ханна. Совершенное оружие через торрент бесплатно! Внесите свою лепту в развитие PiratBit!
    Комментировать посты могут только пользователи прошедшие не сложную регистрацию
    Показать сообщения:    

    Ханна. Совершенное оружие через торрент
    Скачать бесплатно Ханна. Совершенное оружие
    Ханна. Совершенное оружие скачать торрент
    Ханна. Совершенное оружие смотреть онлайн
    Cкачать фильм Ханна. Совершенное оружие бесплатно
    Ханна. Совершенное оружие скачать торрент в хорошем качестве
    Ханна. Совершенное оружие смотреть онлайн бесплатно в хорошем качестве


    Вы не можете начинать темы
    Вы не можете отвечать на сообщения
    Вы не можете редактировать свои сообщения
    Вы не можете удалять свои сообщения
    Вы не можете голосовать в опросах
    Вы не можете прикреплять файлы к сообщениям
    Вы можете скачивать файлы