Ссылка на приватное зеркало нашего сайта всего за 1$. Внимание количество ограничено!!!

2 сезон

iTunes

1 сезон

1

2 сезон

2 сезон

iTunes

1 сезон

RePack

30

Ultimate

ВАЖНО

ИГРА 18+

pack

RePack

MK11
pack

Забери бонус

RePack

jed

!!Акция!!

Alien_Rage

RePack

fifa19

RePack

Assassins Creed: Odyssey

RePack

NEED FOR SPEED™ PAYBACK

4 сезон

9 сезон

Бесстыжие 9 сезон

Все сериалы

все сериалы на PB.wtf

RePack

FAR CRY 5
  

Хочу как ты / The Change-Up (Дэвид Добкин) [2011 г., комедия, HDTV] pb.wtf

Хочу как ты через торрент pb.wtf

Размер: 90 MB | Добавлен: 9 лет 5 мес. назад | Торрент скачан:19 раз
Скачать  

13-06-2011 11:07 Хочу как ты Скачать торрент  


Хочу как ты / The Change-Up
Год выпуска: 2011
Страна: США
Жанр: комедия
Продолжительность: 00:02:58
Перевод: Профессиональный (полное дублирование)

Режиссер: Дэвид Добкин
Продюссер: Дэвид Добкин, Нил Х. Мориц, Джозеф М. Карачиоло мл.
Сценарий: Джон Лукас, Скотт Мур


Премьера в мире: 5 августа 2011
Премьера (РФ): 1 сентября 2011


Мировой рейтинг IMDB


В ролях: Райан Рейнольдс, Оливия Уайлд, Джейсон Бейтман, Лесли Манн, Мирчи Монро, Алан Аркин, Андреа Мур, Грег Сэвадж, Анна Колвелл, Дэкс Гриффин

Описание: Герои фильма, Митч и Дэйв, раньше были не разлей вода, но за последний год отдалились друг от друга, ведь Дэйв — трудяга и примерный семьянин, а Митч — раздолбай, предпочитающий свидания на одну ночь. Но в тайне они завидуют друг другу и мечтают поменяться местами. Что и происходит после веселой совместной попойки, только меняются они телами. Оказывается, что существование другого не настолько светло и радостно, как им думалось. И до того как они найдут способ вернуть свои тела, им нужно постараться не разрушить судьбы друг друга.

Качество: HDTV
Формат: MPEG-4
Видео кодек: AVC
Аудио кодек: AAC
Видео: 4111 Кбит/сек, 852x362, 30,000 кадр/сек (Advanced Video Coding)
Аудио: 132,3 Кбит/сек, 48,0 КГц, 2 канала (Advanced Audio Codec)

Общее
Полное имя : D:\torenti\Хочу как ты.mp4
Формат : MPEG-4
Профиль формата : Sony PSP
Идентификатор кодека : MSNV
Размер файла : 90,3 Мбайт
Продолжительность : 2 м. 58 с.
Общий поток : 4251 Кбит/сек
Дата кодирования : UTC 2011-04-26 06:44:47
Дата пометки : UTC 2011-04-26 06:44:47
Библиотека кодирования : AVS

Видео
Идентификатор : 1
Формат : AVC
Формат/Информация : Advanced Video Codec
Профиль формата : Baseline@L1.3
Параметр CABAC формата : Нет
Параметр ReFrames формата : 1 кадр
Идентификатор кодека : avc1
Идентификатор кодека/Информация : Advanced Video Coding
Продолжительность : 2 м. 58 с.
Вид битрейта : Переменный
Битрейт : 4111 Кбит/сек
Ширина : 852 пикс.
Высота : 362 пикс.
Соотношение сторон : 2,35:1
Режим частоты кадров : Постоянный
Частота кадров : 30,000 кадр/сек
Цветовое пространство : YUV
Подвыборка цветности : 4:2:0
Битовая глубина : 8 бит
Тип развёртки : Прогрессивная
Бит/(Пиксели*Кадры) : 0.444
Размер потока : 87,3 Мбайт (97%)
Язык : English
Дата кодирования : UTC 2011-04-26 06:44:47
Дата пометки : UTC 2011-04-26 06:44:47

Аудио
Идентификатор : 2
Формат : AAC
Формат/Информация : Advanced Audio Codec
Профиль формата : LC
Идентификатор кодека : 40
Продолжительность : 2 м. 58 с.
Вид битрейта : Постоянный
Битрейт : 132,3 Кбит/сек
Номинальный битрейт : 96,0 Кбит/сек
Канал(ы) : 2 канала(ов)
Расположение каналов : Front: L R
Частота : 48,0 КГц
Метод сжатия : С потерями
Размер потока : 2,82 Мбайт (3%)
Язык : English
Дата кодирования : UTC 2011-04-26 06:44:47
Дата пометки : UTC 2011-04-26 06:44:47
pb.wtf



Скачать Хочу как ты через торрент http://i031.radikal.ru/1106/60/1cb47b81a13c.jpg Скачать фильм Хочу как ты через торрент бесплантно в хорошем качестве Описание: Герои фильма, Митч и Дэйв, раньше были не разлей вода, но за последний год отдалились друг от друга, ведь Дэйв — трудяга ... 4.5 10 2
Info! Золотая раздача, скачанное не засчитывается.
Торрент: Зарегистрирован [2011-06-13 11:07] · скачан: 19 раз
Статус: √ проверено
Размер: 90 MB
Как cкачать? Как скачать Хочу как ты через торрент | qTorrent

% Раздел Тема Автор DL S | L
Фильмы 2011 [ 1.37 GB ] Хочу как ты / The Change-Up [2011 HDRip лицензия] SD Скачать
2 | 0
Фильмы (Blu-ray, BD-Remux, HDDVD) [ 19.19 GB ] Хочу как ты / The Change-Up [2011 BD-Remux 1080p] [Расширенная версия / Еxtended edition] NarutoSasuke Скачать
1 | 0
Фильмы 2011 [ 2.1 GB ] Хочу как ты / The Change-Up [2011 HDRip-AVC]DUB stalonе Скачать
1 | 0
Фильмы 2011 [ 1.46 GB ] Хочу как ты / The Change-Up [2011 BDRip-AVC] inktorrent Скачать
1 | 0
Фильмы 2011 [ 2.05 GB ] Хочу как ты / The Change-Up [2011 HDRip] shuller Скачать
1 | 0
Фильмы [HD 720p, 1080p] (Хороший звук DUB, MVO) [ 5.51 GB ] Хочу как ты / The Change-Up [2011 BDRip 720p] pakalodnik0 Скачать
1 | 0
Фильмы (DVD фильмы) [ 6.02 GB ] Хочу как ты / The Change-Up [2011 DVD9] R5 «Двадцатый Век Фокс СНГ» voovaz Скачать
1 | 0

28-11-2019 20:33  

Отключить всю рекламу на сайте

    Дорогой пользователь! Огромная просьба, поблагодарите релизера, оцените раздачу и оставьте свои комментарий, если Вы скачали Хочу как ты через торрент бесплатно! Внесите свою лепту в развитие PiratBit!
    Комментировать посты могут только пользователи прошедшие не сложную регистрацию
    Показать сообщения:    

    Хочу как ты через торрент
    Скачать бесплатно Хочу как ты
    Хочу как ты скачать торрент
    Хочу как ты смотреть онлайн
    Cкачать фильм Хочу как ты бесплатно
    Хочу как ты скачать торрент в хорошем качестве
    Хочу как ты смотреть онлайн бесплатно в хорошем качестве


    Вы не можете начинать темы
    Вы не можете отвечать на сообщения
    Вы не можете редактировать свои сообщения
    Вы не можете удалять свои сообщения
    Вы не можете голосовать в опросах
    Вы не можете прикреплять файлы к сообщениям
    Вы можете скачивать файлы