Доктор Стрэндж

Лицензия

Добыча

Дубляж

Уэнсдэй

1 сезон

Тор

Дубляж

В эфире

Дубляж

Там, где раки поют

MVO

Властелин колец

1 сезон

Deluxe

pack

Рекомендуем

30

Пиратка

ВАЖНО

ВАЖНО

Ghostwire

Пиратка

jed

RePack

nioh2

RePack

RDR2

RePack

NEED FOR SPEED™ PAYBACK

RePack

скачать торрент

Кинопоиск HD

Острые козырьки 6 сезон

6 сезон

FAR CRY 6

RePack

скачать торрент

Лицензия

скачать торрент

MVO

1

1 сезон

скачать торрент

1 сезон

скачать торрент

Лицензия

  

Капитан Алатристе / Alatriste (Августин Диаз Янес) [2006 г., Приключения, Боевик, Исторический, Триллер, BDRip 1080р]

Капитан Алатристе через торрент pb.wtf

Размер: 13.58 GB | Добавлен: 11 лет назад | Торрент скачан:89 раз
Смотреть онлайн | Скачать   

15-06-2011 11:56 Капитан Алатристе Скачать торрент  

Капитан Алатристе
Alatriste




Год выпуска: 2006
Страна: Испания
Жанр: Приключения, Боевик, Исторический, Триллер
Продолжительность: 02:25:05
Перевод: Профессиональный (полное дублирование)

Режиссер: Августин Диаз Янес

В ролях: Вигго Мортенсен, Элена Анайа, Хавьер Камара, Антонио Дечент, Хуан Эчанове, Эдуард Фернандес, Ариадна Гиль, Пилар Лопес де Айала, Эдуардо Норьега, Бланка Портильо, Унакс Угальде, Энрико Ло Версо, Карлос Бардем, Пилар Бардем, Франческ Гарридо, Кристина Маркос, Франческ Орелла

Описание: «Нет, он был не самый честный и не самый милосердный человек на свете. А вот потягаться с ним в отваге смогли бы немногие. Звали его Диего Алатристе». Время и место действия — Испания семнадцатого века, эпоха правления Филиппа Четвертого. Этим слабым, подверженным чужому влиянию монархом, с легкостью манипулирует его развращенный, полный интриг двор, где всем заправляет влиятельный граф Ольварес. В этой империи, которая неуклонно движется к своему закату, и разворачиваются приключения Диего Алатристе, гордого солдата на службе Его Величества во Фландрии, а в мирное время — наемника в Мадриде и Севилье. Вместе с этими персонажем мы попадем в мир интриг и предательств, дуэлей и битв, ненависти и любви, разыгранных на фоне удивительно точно реконструированной эпохи.

Качество: BDRip 1080р
Формат: MKV
Видео кодек: AVC
Аудио кодек: AC3
Видео: AVC, 11.4 Mbps, 1920 x 1040 pixels, 24.000 fps, Bits/(Pixel*Frame) : 0.239
Audio #1 AC-3, 448 Kbps, 6 channels, 48.0 KHz : ru
Text #1 : UTF-8 : ru
Complete name Kapitan.Alatriste.2006.RUS.SPA.x264.BDRip.1080p\Kapitan.Alatriste.2006.x264.BDRip.1080p.mkv
Format : Matroska
File size : 12.0 GiB
Duration : 2h 25mn
Overall bit rate : 11.9 Mbps
Encoded date : UTC 2008-12-12 21:37:53
Writing application : mkvmerge v2.4.0 ('Fumbling Towards Ecstasy') built on Oct 11 2008 20:13:15
Writing library : libebml v0.7.7 + libmatroska v0.8.1

Video
ID : 1
Format : AVC
Format/Info : Advanced Video Codec
Format profile : [email protected]
Format settings, CABAC : Yes
Format settings, ReFrames : 5 frames
Codec ID : V_MPEG4/ISO/AVC
Duration : 2h 25mn
Bit rate : 11.4 Mbps
Width : 1 920 pixels
Height : 1 040 pixels
Display aspect ratio : 16:9
Frame rate : 24.000 fps
Color space : YUV
Chroma subsampling : 4:2:0
Bit depth : 8 bits
Scan type : Progressive
Bits/(Pixel*Frame) : 0.239
Stream size : 11.4 GiB (94%)
Title : x264-WiKi
Writing library : x264 core 65 r998M 6768543
Encoding settings : cabac=1 / ref=5 / deblock=1:-2:-1 / analyse=0x3:0x113 / me=umh / subme=6 / psy_rd=1.0:0.0 / mixed_ref=1 / me_range=16 / chroma_me=1 / trellis=1 / 8x8dct=1 / cqm=0 / deadzone=21,11 / chroma_qp_offset=-2 / threads=6 / nr=0 / decimate=1 / mbaff=0 / bframes=16 / b_pyramid=1 / b_adapt=1 / b_bias=0 / direct=3 / wpredb=1 / keyint=250 / keyint_min=25 / scenecut=40(pre) / rc=2pass / bitrate=11439 / ratetol=1.0 / qcomp=0.60 / qpmin=10 / qpmax=51 / qpstep=4 / cplxblur=20.0 / qblur=0.5 / ip_ratio=1.40 / pb_ratio=1.30 / aq=1:1.00
Language : English

Audio
ID : 2
Format : AC-3
Format/Info : Audio Coding 3
Mode extension : CM (complete main)
Codec ID : A_AC3
Duration : 2h 25mn
Bit rate mode : Constant
Bit rate : 448 Kbps
Channel(s) : 6 channels
Channel positions : Front: L C R, Side: L R, LFE
Sampling rate : 48.0 KHz
Bit depth : 16 bits
Compression mode : Lossy
Delay relative to video : 12s 497ms
Stream size : 465 MiB (4%)
Title : AC3 5.1 (448 kbps)
Language : Russian

Text
ID : 3
Format : UTF-8
Codec ID : S_TEXT/UTF8
Codec ID/Info : UTF-8 Plain Text
Language : Russian



Скачать Капитан Алатристе через торрент http://i1-imageban-ru.translate.goog/out/2011/06/15/a6adc718bc5a6140d7dd7b258458ed3c.png Скачать, смотреть онлайн Капитан Алатристе бесплантно в хорошем качестве Описание: «Нет, он был не самый честный и не самый милосердный человек на свете. А вот потягаться с ним в отваге смогли бы немногие. Звали ... 10 10 1
Info! Золотая раздача, скачанное не засчитывается.
Торрент: Зарегистрирован [2011-06-15 11:56] · скачан: 89 раз
Статус: √ проверено
Размер: 13.58 GB
Как cкачать? Как скачать Капитан Алатристе через торрент | UTorrent

28-11-2019 20:33  


Отключить вcю реклaмy на сайте, в т.ч. и в плеере онлайн просмотра!

15-06-2011 14:09 Капитан Алатристе Скачать торрент  

Ну посмотрим)



    Дорогой пользователь! Огромная просьба, поблагодарите релизера, оцените раздачу и оставьте свои комментарий, если Вы скачали Капитан Алатристе через торрент бесплатно!!
    Комментировать посты могут только пользователи прошедшие не сложную регистрацию
    Показать сообщения:    


    Капитан Алатристе через торрент
    Скачать бесплатно Капитан Алатристе
    Капитан Алатристе скачать торрент
    Капитан Алатристе смотреть онлайн
    Cкачать фильм Капитан Алатристе бесплатно
    Капитан Алатристе скачать торрент в хорошем качестве
    Капитан Алатристе смотреть онлайн бесплатно в хорошем качестве
    Вы не можете начинать темы
    Вы не можете отвечать на сообщения
    Вы не можете редактировать свои сообщения
    Вы не можете удалять свои сообщения
    Вы не можете голосовать в опросах
    Вы не можете прикреплять файлы к сообщениям
    Вы можете скачивать файлы
    Капитан Алатристе / Alatriste [2006 г., Приключения, Боевик, Исторический, Триллер, BDRip 1080р] смотреть онлайн, скачать торрент picoco.icu