новый адрес
Ссылка на приватное зеркало всего за 1$. Внимание количество ограничено!!!

iTunes

1+1

iTunes

мы

WEB-DL

1

iTunes

Чернобыль

iTunes

Ральф против интернета

Лицензия

ПШазам

Лицензия

Оно 2

Лицензия

30
pack

Вам бонус

ВАЖНО

!!Акция!!

Alien_RageХит недели

RePack

Resident Evil 21

ИГРА 18+

pack

RePack

jed

!!Акция!!

Alien_Rage

RePack

fifa19

RePack

Assassins Creed: Odyssey

RePack

NEED FOR SPEED™ PAYBACK

3 сезон

9 сезон

Бесстыжие 9 сезон

Все сериалы

все сериалы на PB.wtf

RePack

FAR CRY 5
Ребята, катастрофически не хватает 1900р. для оплаты серверов за Октябрь (всвязи с блокировками трафик упал в 3 раза), 1-2р., выручайте.
  

Дядюшка Бунми, который помнит свои прошлые жизни / Loong Boonmee raleuk chat (Апитчатпон Вирасетакун / Apichatpong Weerasethakul) [2010, фэнтези, драма, детектив, DVD5] R5 pb.wtf

Дядюшка Бунми, который помнит свои прошлые жизни через торрент pb.wtf

Размер: 4.37 GB | Добавлен: 8 лет 5 мес. назад | Торрент скачан:20 раз
Скачать  

15-06-2011 22:37 Дядюшка Бунми, который помнит свои прошлые жизни Скачать торрент  


Дядюшка Бунми, который помнит свои прошлые жизни / Loong Boonmee raleuk chat
Страна: Германия, Франция, Великобритания, Нидерланды, Испания, Таиланд
Студия: Anna Sanders Films, Eddie Saeta S.A., Fonds Sud Cinéma, Geißendörfer Film- und Fernsehproduktion (GFF), Haus der Kunst, Hubert Bals Fund, Illuminations Films, Kick the Machine, Match Factory, The, Ministère de la Culture et de la Communication, Ministère des Affaires Etrangères et Européennes, Ministry of Culture, Thailand, World Cinema Fund, ZDF/Arte
Жанр: фэнтези, драма, детектив
Год выпуска: 2010
Мировая премьера: 21 мая 2010
Российская премьера: 28 апреля 2011, «Экспонента»
Дата выхода DVD: 16 июня 2011, «Новый Диск»
Продолжительность: 01:48:44
Перевод: Профессиональный (многоголосый закадровый) [Лицензия]
Cубтитры: русские
Режиссер: Апитчатпон Вирасетакун / Apichatpong Weerasethakul
В ролях: Танапат Саисаймар, Дженджира Понгпас, Сакда Каэвбуади, Наттхакарн Апхаивонкм, Геерасак Калхонг, Канокпорн Тонгарам, Маттье Ли, Вьен Пимди
Описание: Дядюшка Бунми страдает острой почечной недостаточностью и решает провести остаток дней у родственников в деревне. Здесь ему являются призраки умершей жены и пропавшего сына и принимают его в свои крылатые объятья. Раздумывая над причинами своей болезни, дядюшка Боонмее вместе со своей семьей пересекает джунгли и достигает пещеры на вершине горы, где родилась его первая жизнь…
Бонусы: Трейлер

Релиз группы:
Качество: DVD5 R5
Формат: DVD-Video
Видео кодек: MPEG2
Аудио кодек: AC3
Видео: PAL 16:9 (720x576(0.412)) MPEG Video,25,000 кадр/сек, 4269 Кбит/сек
Аудио #1: Russian (Dolby AC3, 6 ch) 448 Кбит/сек, 48,0 КГц
Аудио #2: Thai (Dolby AC3, 6 ch) 448 Кбит/сек, 48,0 КГц



Title: Мой диск
Size: 4.37 Gb ( 4 584 336 KBytes ) - DVD-5
Enabled regions: 1, 2, 3, 4, 5, 6, 7, 8

VTS_01 :
Play Length: 00:00:08
Video: PAL 16:9 (720x576) VBR, Auto Pan&Scan
Audio:
English (Dolby AC3, 6 ch)

VTS_02 :
Play Length: 01:48:44
Video: PAL 16:9 (720x576) VBR, Auto Pan&Scan
Audio:
Russian (Dolby AC3, 6 ch)
Thai (Dolby AC3, 6 ch)
Subtitles:
Russian

VTS_03 :
Play Length: 00:01:34
Video: PAL 16:9 (720x576) VBR, Auto Pan&Scan
Audio:
Thai (Dolby AC3, 2 ch)
Общее
Полное имя : F:\Новинки 2011\Djadjushka.Bunmi.kotoriy.pomnit.proshlie.zhizni.2010.DVD5\VIDEO_TS\VTS_02_1.VOB
Формат : MPEG-PS
Размер файла : 1024 Мбайт
Продолжительность : 27 м.
Общий поток : 5270 Кбит/сек

Видео
Идентификатор : 224 (0xE0)
Формат : MPEG Video
Версия формата : Version 2
Профиль формата : Main@Main
Параметр BVOP формата : Да
Параметр матрицы формата : По умолчанию
Продолжительность : 27 м.
Вид битрейта : Переменный
Битрейт : 4269 Кбит/сек
Номинальный битрейт : 8000 Кбит/сек
Ширина : 720 пикс.
Высота : 576 пикс.
Соотношение сторон : 16:9
Частота кадров : 25,000 кадр/сек
Стандарт вещания : PAL
Цветовое пространство : YUV
Подвыборка цветности : 4:2:0
Битовая глубина : 8 бит
Тип развёртки : Чересстрочная
Порядок развёртки : Верхнее поле первое
Метод сжатия : С потерями
Бит/(Пиксели*Кадры) : 0.412
Размер потока : 830 Мбайт (81%)

Аудио #1
Идентификатор : 189 (0xBD)-128 (0x80)
Формат : AC-3
Формат/Информация : Audio Coding 3
Расширение режима : CM (complete main)
Режим смешивания : DVD-Video
Продолжительность : 27 м.
Вид битрейта : Постоянный
Битрейт : 448 Кбит/сек
Канал(ы) : 6 канала(ов)
Расположение каналов : Front: L C R, Side: L R, LFE
Частота : 48,0 КГц
Битовая глубина : 16 бит
Метод сжатия : С потерями
Размер потока : 87,0 Мбайт (8%)

Аудио #2
Идентификатор : 189 (0xBD)-129 (0x81)
Формат : AC-3
Формат/Информация : Audio Coding 3
Расширение режима : CM (complete main)
Режим смешивания : DVD-Video
Продолжительность : 27 м.
Вид битрейта : Постоянный
Битрейт : 448 Кбит/сек
Канал(ы) : 6 канала(ов)
Расположение каналов : Front: L C R, Side: L R, LFE
Частота : 48,0 КГц
Битовая глубина : 16 бит
Метод сжатия : С потерями
Размер потока : 87,0 Мбайт (8%)

Текст
Идентификатор : 189 (0xBD)-32 (0x20)
Формат : RLE
Формат/Информация : Run-length encoding
Режим смешивания : DVD-Video










pb.wtf



Скачать Дядюшка Бунми, который помнит свои прошлые жизни через торрент http://i1.imageban.ru/out/2011/06/15/7fced27d7cb7dec28fee1f64bb8acdff.jpg Скачать фильм Дядюшка Бунми, который помнит свои прошлые жизни через торрент бесплантно в хорошем качестве Описание: Дядюшка Бунми страдает острой почечной недостаточностью и решает провести остаток дней у родственников в деревне. Здесь ему ... 10 10 1
Info! Золотая раздача, скачанное не засчитывается.
Торрент: Зарегистрирован [2011-06-15 22:37] · скачан: 20 раз
Статус: √ проверено
Размер: 4.37 GB
Как cкачать? Как скачать Дядюшка Бунми, который помнит свои прошлые жизни через торрент | qTorrent

28-11-2019 20:33  

Отключить всю рекламу на сайте

    Дорогой пользователь! Огромная просьба, поблагодарите релизера, оцените раздачу и оставьте свои комментарий, если Вы скачали Дядюшка Бунми, который помнит свои прошлые жизни через торрент бесплатно! Внесите свою лепту в развитие PiratBit!
    Комментировать посты могут только пользователи прошедшие не сложную регистрацию
    Показать сообщения:    

    Дядюшка Бунми, который помнит свои прошлые жизни через торрент
    Скачать бесплатно Дядюшка Бунми, который помнит свои прошлые жизни
    Дядюшка Бунми, который помнит свои прошлые жизни скачать торрент
    Дядюшка Бунми, который помнит свои прошлые жизни смотреть онлайн
    Cкачать фильм Дядюшка Бунми, который помнит свои прошлые жизни бесплатно
    Дядюшка Бунми, который помнит свои прошлые жизни скачать торрент в хорошем качестве
    Дядюшка Бунми, который помнит свои прошлые жизни смотреть онлайн бесплатно в хорошем качестве


    Вы не можете начинать темы
    Вы не можете отвечать на сообщения
    Вы не можете редактировать свои сообщения
    Вы не можете удалять свои сообщения
    Вы не можете голосовать в опросах
    Вы не можете прикреплять файлы к сообщениям
    Вы можете скачивать файлы